<?xml version="1.0" standalone="no"?>
<!DOCTYPE svg PUBLIC "-//W3C//DTD SVG 1.1//EN" "http://www.w3.org/Graphics/SVG/1.1/DTD/svg11.dtd" >
<svg xmlns="http://www.w3.org/2000/svg" xmlns:xlink="http://www.w3.org/1999/xlink" version="1.1">
<metadata>
Created by FontForge 20161013 at Mon Oct 10 10:27:39 2005
 By ,,,
HTF Gotham  Copr. 2003 The Hoefler Type Foundry, Inc. Info: www.typography.com
</metadata>
<defs>
<font id="GothamExtraLight" horiz-adv-x="500" >
  <font-face 
    font-family="Gotham ExtraLight"
    font-weight="200"
    font-stretch="normal"
    units-per-em="1000"
    panose-1="2 0 6 3 3 0 0 2 0 4"
    ascent="800"
    descent="-200"
    x-height="504"
    cap-height="700"
    bbox="-54 -165 1125 893"
    underline-thickness="20"
    underline-position="-153"
    unicode-range="U+0020-FB02"
  />
<missing-glyph 
 />
    <glyph glyph-name="fi" unicode="fi" horiz-adv-x="571" 
d="M439 504h32v-504h-32v504zM126 475h-77v29h77v63q0 88 43 129q37 37 99 37q23 0 40 -3.5t33 -9.5v-31q-33 13 -73 13q-53 0 -81.5 -33t-28.5 -105v-60h181v-29h-181v-475h-32v475zM434 704h43v-61h-43v61z" />
    <glyph glyph-name="fl" unicode="fl" horiz-adv-x="571" 
d="M439 730h32v-730h-32v730zM126 475h-77v29h77v63q0 88 43 129q37 37 99 37q23 0 40 -3.5t33 -9.5v-31q-33 13 -73 13q-53 0 -81.5 -33t-28.5 -105v-60h181v-29h-181v-475h-32v475z" />
    <glyph glyph-name=".notdef" 
 />
    <glyph glyph-name=".null" horiz-adv-x="0" 
 />
    <glyph glyph-name="nonmarkingreturn" horiz-adv-x="288" 
 />
    <glyph glyph-name="space" unicode=" " horiz-adv-x="288" 
 />
    <glyph glyph-name="exclam" unicode="!" horiz-adv-x="217" 
d="M85 65h48v-65h-48v65zM90 607v93h37v-93l-10 -424h-17z" />
    <glyph glyph-name="quotedbl" unicode="&#x22;" horiz-adv-x="346" 
d="M98 700h41v-3l-57 -251h-19zM247 700h41v-3l-57 -251h-19z" />
    <glyph glyph-name="numbersign" unicode="#" horiz-adv-x="676" 
d="M429 225l44 255h-226l-44 -255h226zM166 195h-117v31h122l44 254h-126v30h131l33 190h31l-32 -190h226l33 190h31l-33 -190h117v-30h-122l-43 -254h125v-31h-131l-33 -195h-31l33 195h-226l-34 -195h-31z" />
    <glyph glyph-name="dollar" unicode="$" horiz-adv-x="626" 
d="M330 29q44 0 79 11.5t59 31.5t37 48t13 60v2q0 31 -10.5 54.5t-33 41.5t-58.5 31.5t-86 25.5v-306zM301 671q-41 0 -73.5 -12t-55.5 -31.5t-35.5 -45.5t-12.5 -56v-2q0 -29 9.5 -51.5t30.5 -40.5t54.5 -31.5t82.5 -25.5v296zM300 1q-68 5 -127 32.5t-109 74.5l22 25
q46 -45 99.5 -71.5t115.5 -31.5v312q-107 24 -159 65t-52 115v2q0 36 15 68t43 55.5t66.5 37.5t85.5 14v59h31v-59q61 -4 108.5 -25t90.5 -57l-21 -26q-41 35 -83 55t-96 24v-303q112 -24 167 -66t55 -117v-2q0 -39 -15.5 -72.5t-44.5 -58t-70 -38t-91 -13.5v-98h-31v99z
" />
    <glyph glyph-name="percent" unicode="%" horiz-adv-x="806" 
d="M598 21q27 0 49.5 12t38 32t24 47.5t8.5 57.5v2q0 30 -9 57.5t-25 48.5t-38.5 33t-49.5 12t-49 -12t-38 -32.5t-24.5 -47.5t-8.5 -57v-2q0 -31 9 -58.5t25.5 -48t38.5 -32.5t49 -12zM210 377q27 0 49.5 12t38 32.5t24 47.5t8.5 57v2q0 30 -9 57.5t-25 48.5t-38.5 33
t-49.5 12t-49 -12t-38 -32.5t-24.5 -47.5t-8.5 -57v-2q0 -31 9 -58.5t25.5 -48t38.5 -32.5t49 -12zM597 -8q-35 0 -63.5 14.5t-49 39t-31.5 57t-11 67.5v2q0 35 11 67.5t31.5 57t49 39.5t63.5 15t63.5 -14.5t49 -39.5t31.5 -57t11 -67v-2q0 -36 -11 -68t-31.5 -57t-49 -39.5
t-63.5 -14.5zM643 700h34l-514 -700h-34zM209 349q-35 0 -63.5 14.5t-49 39t-31.5 57t-11 67.5v2q0 35 11 67.5t31.5 57t49 39.5t63.5 15t63.5 -14.5t49 -39.5t31.5 -57t11 -67v-2q0 -36 -11 -68t-31.5 -57t-49 -39.5t-63.5 -14.5z" />
    <glyph glyph-name="ampersand" unicode="&#x26;" horiz-adv-x="678" 
d="M261 20q63 0 117 32t99 86l-217 229q-38 -15 -70 -33.5t-55 -41t-36.5 -50.5t-13.5 -63v-2q0 -32 12.5 -60.5t36 -50t56 -34t71.5 -12.5zM273 401q91 37 129.5 75t38.5 88v2q0 23 -9 44t-25.5 37.5t-39.5 26t-51 9.5q-30 0 -54.5 -10t-41.5 -27t-26 -38.5t-9 -44.5v-2
q0 -17 4.5 -34.5t14.5 -36.5t27 -41t42 -48zM498 116q-49 -60 -107.5 -93t-129.5 -33q-46 0 -84.5 14.5t-66.5 39.5t-43.5 59t-15.5 73v2q0 41 14.5 73t40 57t60 44.5t73.5 36.5q-48 51 -68 90.5t-20 79.5v2q0 29 11.5 56t33 48t52 34t69.5 13q35 0 64 -12t49.5 -32
t32 -46.5t11.5 -54.5v-2q0 -60 -42 -103t-138 -82l203 -215q27 38 50 83.5t45 101.5l30 -11q-23 -57 -48.5 -106.5t-55.5 -90.5l125 -132l-25 -22z" />
    <glyph glyph-name="quotesingle" unicode="'" horiz-adv-x="198" 
d="M98 700h41v-3l-57 -251h-19z" />
    <glyph glyph-name="parenleft" unicode="(" horiz-adv-x="406" 
d="M337 -140q-132 75 -200 183.5t-68 243.5t68 243.5t200 183.5l14 -22q-122 -72 -185 -174.5t-63 -230.5t63 -230.5t185 -174.5z" />
    <glyph glyph-name="parenright" unicode=")" horiz-adv-x="406" 
d="M55 -118q122 72 185 174.5t63 230.5t-63 230.5t-185 174.5l14 22q132 -75 200 -183.5t68 -243.5t-68 -243.5t-200 -183.5z" />
    <glyph glyph-name="asterisk" unicode="*" horiz-adv-x="430" 
d="M207 541l-113 -75l-16 27l123 61l-123 61l16 27l113 -75l-7 135h30l-7 -135l113 75l16 -27l-123 -61l123 -61l-16 -27l-113 75l7 -135h-30z" />
    <glyph glyph-name="plus" unicode="+" horiz-adv-x="587" 
d="M278 337h-207v30h207v212h32v-212h206v-30h-206v-212h-32v212z" />
    <glyph glyph-name="comma" unicode="," horiz-adv-x="190" 
d="M55 -74q23 11 31.5 28.5t6.5 45.5h-22v65h48v-57q0 -45 -13 -66.5t-42 -32.5z" />
    <glyph glyph-name="hyphen" unicode="-" horiz-adv-x="396" 
d="M70 315h256v-35h-256v35z" />
    <glyph glyph-name="hyphen" unicode="&#xad;" horiz-adv-x="396" 
d="M70 315h256v-35h-256v35z" />
    <glyph glyph-name="period" unicode="." horiz-adv-x="190" 
d="M71 65h48v-65h-48v65z" />
    <glyph glyph-name="slash" unicode="/" horiz-adv-x="483" 
d="M453 798h33l-471 -926h-33z" />
    <glyph glyph-name="zero" unicode="0" horiz-adv-x="710" 
d="M356 19q60 0 106.5 27t79 73t49.5 105t17 124v2q0 64 -17.5 124t-50 106t-79.5 73.5t-107 27.5t-106.5 -27t-79 -72.5t-49.5 -105t-17 -124.5v-2q0 -65 17.5 -124.5t50 -105.5t79.5 -73.5t107 -27.5zM355 -12q-68 0 -121.5 29.5t-90.5 79t-56.5 115t-19.5 137.5v2
q0 72 19.5 137t57 115t90.5 79.5t121 29.5t121.5 -29.5t90.5 -79t56.5 -115t19.5 -137.5v-2q0 -72 -19.5 -137t-57 -115t-91 -79.5t-120.5 -29.5z" />
    <glyph glyph-name="one" unicode="1" horiz-adv-x="323" 
d="M175 668l-132 -53l-11 27l150 63h26v-705h-33v668z" />
    <glyph glyph-name="two" unicode="2" horiz-adv-x="576" 
d="M43 23l295 279q42 39 68.5 70.5t41.5 57.5t21 49t6 46q0 33 -13.5 61t-36.5 49t-55 33t-69 12q-73 0 -124.5 -37.5t-88.5 -99.5l-27 17q19 33 43 61t53.5 47.5t65.5 30.5t80 11q46 0 84 -14t65.5 -39t42.5 -58t15 -71v-2q0 -28 -7 -54.5t-24 -55t-46 -61.5t-73 -75
l-262 -248h421v-32h-476v23z" />
    <glyph glyph-name="three" unicode="3" horiz-adv-x="566" 
d="M281 -12q-84 0 -147.5 35t-105.5 90l26 22q40 -53 97.5 -84.5t130.5 -31.5q39 0 74 12t61 34t41.5 52.5t15.5 66.5v2q0 43 -18 74t-50.5 51t-77 30t-98.5 10h-29l-10 20l260 297h-386v32h432v-24l-257 -294q59 -1 108 -13.5t84.5 -36.5t55.5 -60t20 -85v-2
q0 -44 -18.5 -80t-49.5 -62t-72 -40.5t-87 -14.5z" />
    <glyph glyph-name="four" unicode="4" horiz-adv-x="638" 
d="M450 208v447l-366 -447h366zM450 178h-399l-11 24l413 503h29v-497h115v-30h-115v-178h-32v178z" />
    <glyph glyph-name="five" unicode="5" horiz-adv-x="597" 
d="M297 -12q-36 0 -70.5 9t-65.5 24t-58 35.5t-47 43.5l25 24q41 -45 97.5 -75t120.5 -30q45 0 83 14t65.5 39.5t42.5 60t15 75.5v2q0 40 -15.5 73t-43 56.5t-65.5 36.5t-82 13q-89 0 -174 -46l-24 14l20 343h381v-32h-350l-18 -287q39 19 80 28.5t89 9.5q50 0 93.5 -15
t75 -42.5t49.5 -66t18 -84.5v-2q0 -48 -18 -89t-50 -70t-76.5 -45.5t-97.5 -16.5z" />
    <glyph glyph-name="six" unicode="6" horiz-adv-x="632" 
d="M331 19q45 0 82.5 16t64.5 42.5t42.5 61.5t15.5 74v2q0 40 -16 73.5t-43.5 58.5t-66 39t-83.5 14q-44 0 -81.5 -15.5t-65.5 -41t-44 -59.5t-16 -70v-2q0 -40 16.5 -75t45 -61.5t67 -41.5t82.5 -15zM329 -12q-56 0 -100.5 19.5t-75.5 51.5q-42 42 -63.5 105t-21.5 165v2
q0 81 19 150.5t55 121t88 80.5t117 29q57 0 105.5 -21.5t92.5 -59.5l-22 -26q-39 36 -83.5 56t-95.5 20q-56 0 -101 -26.5t-76 -73t-48 -111t-17 -139.5v-2v-30.5t1 -33.5q8 33 28 63t49 52.5t66.5 36t81.5 13.5q51 0 95 -16t77 -44.5t52 -67.5t19 -86v-2q0 -47 -18.5 -88
t-51 -71.5t-77 -48.5t-95.5 -18z" />
    <glyph glyph-name="seven" unicode="7" horiz-adv-x="555" 
d="M479 668h-421v32h459v-23l-335 -677h-37z" />
    <glyph glyph-name="eight" unicode="8" horiz-adv-x="628" 
d="M314 21q52 0 93.5 12.5t70 34.5t44 51t15.5 61v2q0 36 -17.5 65.5t-48 51.5t-71.5 34t-87 12t-86.5 -12t-70.5 -33.5t-47.5 -51t-17.5 -65.5v-2q0 -32 15.5 -61t44.5 -51t70 -35t93 -13zM314 375q40 0 76 11t62.5 30.5t42 47.5t15.5 63v2q0 32 -15.5 59.5t-42 47.5
t-62.5 31.5t-77 11.5t-77 -11t-62.5 -31t-41.5 -47.5t-15 -59.5v-2q0 -35 15.5 -63t42.5 -48t63 -31t76 -11zM314 -10q-59 0 -106.5 15t-81 41t-52 61t-18.5 75v2q0 33 13 61.5t36.5 51t55 39t67.5 25.5q-31 10 -57.5 25t-46 36t-30.5 47t-11 58v2q0 39 18.5 72.5t50 57.5
t73.5 37.5t89 13.5t89 -13.5t73.5 -37.5t50 -57.5t18.5 -72.5v-2q0 -32 -11 -58t-30.5 -47t-46 -36t-57.5 -25q36 -9 67.5 -25.5t54.5 -39.5t36 -51.5t13 -60.5v-2q0 -40 -18.5 -75t-52 -61t-81 -41t-105.5 -15z" />
    <glyph glyph-name="nine" unicode="9" horiz-adv-x="632" 
d="M306 294q44 0 81.5 15.5t65.5 41.5t43.5 60t15.5 72v2q0 41 -16 76.5t-44.5 62t-67 42t-83.5 15.5q-44 0 -81.5 -16t-65 -43t-43 -63t-15.5 -76v-2q0 -41 16 -75.5t44 -59.5t66.5 -38.5t83.5 -13.5zM286 -12q-60 0 -112 24.5t-94 62.5l22 26q42 -39 88 -60.5t97 -21.5
q56 0 101 26.5t76.5 73.5t49 110.5t17.5 138.5v2q0 14 -0.5 31.5t-0.5 31.5q-8 -35 -28 -66t-49.5 -54t-67.5 -36.5t-81 -13.5q-52 0 -96.5 16t-77 45t-51 69t-18.5 87v2q0 48 18.5 89.5t51 73t77 49.5t96.5 18q57 0 100.5 -20t75.5 -51q41 -41 63 -105.5t22 -165.5v-2
q0 -82 -20 -151.5t-56.5 -120.5t-88 -79.5t-114.5 -28.5z" />
    <glyph glyph-name="colon" unicode=":" horiz-adv-x="197" 
d="M74 65h48v-65h-48v65zM74 504h48v-65h-48v65z" />
    <glyph glyph-name="semicolon" unicode=";" horiz-adv-x="197" 
d="M58 -74q23 11 31.5 28.5t6.5 45.5h-22v65h48v-57q0 -45 -12.5 -66.5t-42.5 -32.5zM74 504h48v-65h-48v65z" />
    <glyph glyph-name="semicolon" unicode="&#x37e;" horiz-adv-x="197" 
d="M58 -74q23 11 31.5 28.5t6.5 45.5h-22v65h48v-57q0 -45 -12.5 -66.5t-42.5 -32.5zM74 504h48v-65h-48v65z" />
    <glyph glyph-name="less" unicode="&#x3c;" horiz-adv-x="616" 
d="M63 341v22l462 237v-35l-418 -213l418 -213v-35z" />
    <glyph glyph-name="equal" unicode="=" horiz-adv-x="616" 
d="M93 253h430v-32h-430v32zM93 484h430v-32h-430v32z" />
    <glyph glyph-name="greater" unicode="&#x3e;" horiz-adv-x="616" 
d="M91 139l418 213l-418 213v35l462 -237v-22l-462 -237v35z" />
    <glyph glyph-name="question" unicode="?" horiz-adv-x="513" 
d="M205 65h48v-65h-48v65zM209 342l4 4q48 2 87 14.5t67.5 34.5t44 52t15.5 68v2q0 34 -13 63.5t-36.5 51.5t-57 34.5t-73.5 12.5q-61 0 -110 -30.5t-84 -81.5l-25 19q38 55 91.5 89t128.5 34q48 0 87.5 -15t67.5 -40.5t43 -60.5t15 -74v-2q0 -46 -18 -81t-47.5 -60
t-68.5 -39.5t-81 -18.5l-8 -135h-19z" />
    <glyph glyph-name="at" unicode="@" horiz-adv-x="961" 
d="M442 109q37 0 70.5 17t58.5 45.5t39.5 65t14.5 75.5q0 31 -10.5 57.5t-29 46t-43.5 30.5t-55 11q-36 0 -69.5 -16t-59 -43.5t-40.5 -65.5t-15 -82q0 -67 39 -104t100 -37zM493 -163q-92 0 -171 32t-137.5 89.5t-91.5 136.5t-33 172q0 89 32 169.5t89 142t135 97.5t169 36
q89 0 165 -31.5t132 -85.5t88 -125t32 -149q0 -65 -16 -111t-41.5 -75t-56 -43t-58.5 -14t-49 9t-35.5 24t-23 35t-10.5 42q-28 -48 -72 -79t-101 -31q-36 0 -67 12t-54 34t-36 53.5t-13 70.5q0 51 18.5 95t49 76.5t70 50.5t80.5 18q59 0 98.5 -31t52.5 -78l17 90l31 -5
l-36 -199q-4 -20 -5.5 -36t-1.5 -27q0 -45 21.5 -72t67.5 -27q25 0 50.5 12.5t46.5 39t34 67.5t13 99q0 72 -29.5 138.5t-82 117t-124.5 81t-156 30.5q-87 0 -160 -34t-126 -92t-83 -134.5t-30 -160.5q0 -89 31 -163.5t86 -128.5t130 -84t162 -30q70 0 127.5 17t111.5 50
l12 -19q-54 -35 -115.5 -53.5t-136.5 -18.5z" />
    <glyph glyph-name="A" unicode="A" horiz-adv-x="776" 
d="M589 235l-202 430l-201 -430h403zM372 705h32l332 -705h-37l-95 204h-433l-96 -204h-35z" />
    <glyph glyph-name="B" unicode="B" horiz-adv-x="724" 
d="M408 31q102 0 158.5 40.5t56.5 112.5v2q0 37 -15.5 65t-43.5 47.5t-67 29.5t-85 10h-274v-307h270zM399 369q39 0 73 9.5t59.5 28.5t40 47.5t14.5 66.5v2q0 66 -51 106t-144 40h-253v-300h261zM104 700h288q60 0 107 -16t76 -45q45 -45 45 -113v-2q0 -34 -10 -61
t-27.5 -48t-41 -35.5t-50.5 -21.5q34 -6 64.5 -20.5t53.5 -36t36 -50t13 -64.5v-2q0 -88 -66.5 -136.5t-184.5 -48.5h-303v700z" />
    <glyph glyph-name="C" unicode="C" horiz-adv-x="731" 
d="M417 -12q-74 0 -137 28.5t-109 77t-72 114t-26 140.5v2q0 74 26 139.5t72 115t109.5 78.5t138.5 29q49 0 87.5 -8.5t70.5 -23.5t58.5 -35t52.5 -44l-24 -25q-22 21 -46.5 40t-54.5 33.5t-65.5 23t-79.5 8.5q-67 0 -123.5 -26t-98 -71t-65 -105t-23.5 -128v-2
q0 -68 23.5 -128t65.5 -105t99 -71t123 -26q82 0 142 32t107 80l24 -23q-25 -25 -53.5 -47t-62.5 -38t-73.5 -25.5t-85.5 -9.5z" />
    <glyph glyph-name="D" unicode="D" horiz-adv-x="777" 
d="M333 31q75 0 137 24.5t106.5 67.5t68.5 101t24 124v2q0 66 -24.5 124.5t-68.5 101.5t-106 68t-138 25h-194v-638h195zM104 700h228q82 0 150.5 -27t118 -74t76.5 -110.5t27 -137.5v-2q0 -74 -27 -137.5t-76.5 -110.5t-118 -74t-150.5 -27h-228v700z" />
    <glyph glyph-name="E" unicode="E" horiz-adv-x="665" 
d="M104 700h493v-31h-459v-301h415v-31h-415v-306h464v-31h-498v700z" />
    <glyph glyph-name="F" unicode="F" horiz-adv-x="637" 
d="M104 700h488v-31h-454v-310h410v-31h-410v-328h-34v700z" />
    <glyph glyph-name="G" unicode="G" horiz-adv-x="781" 
d="M421 -12q-83 0 -147.5 28.5t-109 78t-68 114.5t-23.5 139v2q0 70 24.5 135.5t69.5 116t109 80.5t143 30q41 0 75 -6t64 -17.5t56.5 -28.5t52.5 -39l-22 -26q-23 19 -47 35t-51.5 27t-59 17.5t-70.5 6.5q-70 0 -127 -27.5t-97.5 -73t-62.5 -105.5t-22 -124v-2
q0 -68 21.5 -128t62 -105t98.5 -71.5t132 -26.5q37 0 71 7.5t64.5 20t56.5 28.5t47 34v215h-249v33h282v-261q-49 -45 -118.5 -76t-154.5 -31z" />
    <glyph glyph-name="H" unicode="H" horiz-adv-x="755" 
d="M104 700h34v-332h479v332h34v-700h-34v337h-479v-337h-34v700z" />
    <glyph glyph-name="I" unicode="I" horiz-adv-x="256" 
d="M111 700h34v-700h-34v700z" />
    <glyph glyph-name="J" unicode="J" horiz-adv-x="540" 
d="M238 -11q-72 0 -124 37t-81 100l29 16q27 -59 71.5 -90.5t106.5 -31.5q36 0 67.5 13t54.5 39.5t36.5 66t13.5 93.5v468h34v-464q0 -66 -17.5 -113t-47.5 -78q-58 -56 -143 -56z" />
    <glyph glyph-name="K" unicode="K" horiz-adv-x="709" 
d="M104 700h34v-468l469 468h47l-305 -301l317 -399h-44l-297 376l-187 -185v-191h-34v700z" />
    <glyph glyph-name="L" unicode="L" horiz-adv-x="598" 
d="M104 700h34v-669h422v-31h-456v700z" />
    <glyph glyph-name="M" unicode="M" horiz-adv-x="863" 
d="M104 700h32l296 -426l295 426h32v-700h-34v641l-293 -420h-2l-293 420v-641h-33v700z" />
    <glyph glyph-name="N" unicode="N" horiz-adv-x="784" 
d="M104 700h31l512 -642v642h33v-700h-27l-516 647v-647h-33v700z" />
    <glyph glyph-name="O" unicode="O" horiz-adv-x="845" 
d="M424 19q70 0 127.5 26.5t98.5 71.5t64 105t23 126v2q0 66 -23 126t-64.5 105.5t-99.5 72.5t-128 27t-128 -26.5t-99 -71.5t-64 -105t-23 -126v-2q0 -66 23 -126t65 -105.5t100 -72.5t128 -27zM422 -12q-80 0 -144 29.5t-110 79.5t-70.5 115t-24.5 137v2q0 72 25 137
t70.5 115t110 79.5t144.5 29.5q79 0 143.5 -29.5t110.5 -79.5t70.5 -115t24.5 -137q2 0 0 -2q0 -72 -25 -137t-70.5 -115t-110.5 -79.5t-144 -29.5z" />
    <glyph glyph-name="P" unicode="P" horiz-adv-x="668" 
d="M346 301q109 0 173.5 48t64.5 136v2q0 87 -62.5 134.5t-171.5 47.5h-213v-368h209zM103 700h250q61 0 110.5 -14.5t83.5 -41.5t52.5 -66.5t18.5 -89.5v-2q0 -53 -20 -93t-56.5 -68t-86.5 -42t-110 -14h-208v-269h-34v700z" />
    <glyph glyph-name="Q" unicode="Q" horiz-adv-x="845" 
d="M424 19q62 0 114 21t92 57l-147 127l23 26l147 -130q41 45 62.5 104t21.5 124v2q0 66 -23 126t-64.5 105.5t-99.5 72.5t-128 27t-128 -26.5t-99 -71.5t-64 -105t-23 -126v-2q0 -66 23 -126t65 -105.5t100 -72.5t128 -27zM655 75q-45 -40 -103.5 -63.5t-129.5 -23.5
q-80 0 -144 29.5t-110 79.5t-70.5 115t-24.5 137v2q0 72 25 137t70.5 115t110 79.5t144.5 29.5q79 0 143.5 -29.5t110.5 -79.5t70.5 -115t24.5 -137q2 0 0 -2q0 -71 -24.5 -135.5t-69.5 -115.5l100 -86l-23 -26z" />
    <glyph glyph-name="R" unicode="R" horiz-adv-x="724" 
d="M384 330q54 0 96 12.5t71 35t44 53.5t15 68v2q0 79 -57.5 123.5t-161.5 44.5h-253v-339h246zM104 700h289q67 0 117.5 -17.5t82.5 -49.5q24 -25 37.5 -58t13.5 -72v-2q0 -44 -16 -79t-45.5 -60t-70 -40t-88.5 -19l233 -303h-43l-228 299h-3h-245v-299h-34v700z" />
    <glyph glyph-name="S" unicode="S" horiz-adv-x="641" 
d="M338 -10q-82 0 -150.5 28.5t-128.5 83.5l23 25q56 -53 118.5 -79.5t139.5 -26.5q45 0 82 11.5t63.5 32.5t40.5 49t14 61v2q0 31 -10 55t-34.5 43t-66.5 34.5t-105 28.5q-64 13 -109.5 30t-74 39.5t-41.5 52t-13 67.5v2q0 37 17 70t47 58t71.5 39t91.5 14q72 0 130 -21.5
t108 -60.5l-21 -27q-98 78 -219 78q-43 0 -78.5 -12t-60.5 -32.5t-38.5 -47t-13.5 -55.5v-2q0 -30 10 -54t34.5 -43.5t66.5 -35t106 -28.5q65 -13 110.5 -30.5t73.5 -40.5t40.5 -52t12.5 -66v-2q0 -41 -17 -75t-47.5 -59.5t-74 -39.5t-97.5 -14z" />
    <glyph glyph-name="T" unicode="T" horiz-adv-x="608" 
d="M287 669h-249v31h533v-31h-250v-669h-34v669z" />
    <glyph glyph-name="U" unicode="U" horiz-adv-x="755" 
d="M378 -11q-63 0 -115.5 20t-90 59t-58.5 97.5t-21 136.5v398h34v-396q0 -70 18 -123t51 -89t79.5 -54t103.5 -18t103 17.5t78.5 53t50 88t17.5 123.5v398h34v-395q0 -78 -20.5 -137.5t-58 -99t-90 -59.5t-115.5 -20z" />
    <glyph glyph-name="V" unicode="V" horiz-adv-x="736" 
d="M40 700h37l292 -662l292 662h35l-314 -705h-28z" />
    <glyph glyph-name="W" unicode="W" horiz-adv-x="1051" 
d="M46 700h37l220 -651l210 653h26l211 -654l220 652h35l-242 -705h-28l-210 643l-209 -643h-28z" />
    <glyph glyph-name="X" unicode="X" horiz-adv-x="692" 
d="M326 356l-273 344h40l253 -321l253 321h40l-272 -343l282 -357h-40l-263 334l-263 -334h-40z" />
    <glyph glyph-name="Y" unicode="Y" horiz-adv-x="681" 
d="M324 287l-298 413h42l274 -383l272 383h41l-297 -413v-287h-34v287z" />
    <glyph glyph-name="Z" unicode="Z" horiz-adv-x="682" 
d="M67 19l496 650h-479v31h527v-19l-496 -650h494v-31h-542v19z" />
    <glyph glyph-name="bracketleft" unicode="[" horiz-adv-x="418" 
d="M98 700h267v-25h-235v-780h235v-25h-267v830z" />
    <glyph glyph-name="backslash" unicode="\" horiz-adv-x="483" 
d="M-4 798h34l471 -926h-34z" />
    <glyph glyph-name="bracketright" unicode="]" horiz-adv-x="418" 
d="M53 -105h235v780h-235v25h267v-830h-267v25z" />
    <glyph glyph-name="asciicircum" unicode="^" 
d="M238 703h24l157 -209h-31l-138 176l-139 -176h-30z" />
    <glyph glyph-name="underscore" unicode="_" horiz-adv-x="570" 
d="M-2 -124h574v-29h-574v29z" />
    <glyph glyph-name="grave" unicode="`" 
d="M166 703l39 20l93 -128h-25z" />
    <glyph glyph-name="a" unicode="a" horiz-adv-x="569" 
d="M244 18q46 0 84.5 13.5t66.5 36.5t44 53.5t16 64.5v62q-37 12 -81 20t-101 8q-42 0 -76.5 -8.5t-59 -25t-38.5 -41t-14 -55.5v-2q0 -31 13 -54.5t35 -39.5t50.5 -24t60.5 -8zM242 -12q-36 0 -70.5 9.5t-61.5 29t-43 48.5t-16 67v2q0 39 17 69.5t46.5 51t70.5 31t89 10.5
q53 0 98 -8t82 -20v34q0 86 -47.5 128t-132.5 42q-47 0 -86.5 -11.5t-77.5 -30.5l-12 28q42 20 84.5 32t93.5 12q105 0 160 -55q24 -25 37 -60.5t13 -82.5v-314h-32v105q-10 -21 -28 -41.5t-44.5 -37.5t-61.5 -27.5t-78 -10.5z" />
    <glyph glyph-name="b" unicode="b" horiz-adv-x="657" 
d="M345 19q48 0 88 17t69 48t45 73t16 93v2q0 50 -16.5 92.5t-45.5 74t-69 49t-87 17.5t-87.5 -18t-70.5 -49.5t-47 -73.5t-17 -91v-2q0 -49 17.5 -91t47.5 -73.5t70.5 -49.5t86.5 -18zM348 -12q-42 0 -77 11.5t-63.5 32t-49 47.5t-33.5 58v-137h-32v730h32v-365
q13 31 34 59t49.5 48t63.5 32t76 12q51 0 96.5 -19.5t79 -54.5t53.5 -83t20 -106v-2q0 -57 -20 -105.5t-53.5 -83.5t-79 -54.5t-96.5 -19.5z" />
    <glyph glyph-name="c" unicode="c" horiz-adv-x="565" 
d="M315 -12q-54 0 -101 21t-81.5 57t-54.5 83.5t-20 101.5v2q0 53 20 101t54.5 84t81.5 57t102 21q35 0 64 -7.5t53 -20t45 -29.5t39 -36l-23 -23q-33 35 -76 60.5t-103 25.5q-48 0 -88.5 -18.5t-70.5 -50t-47 -73.5t-17 -90v-2q0 -48 17.5 -90.5t48 -74.5t71.5 -50.5
t88 -18.5q60 0 104 26.5t77 63.5l23 -20q-37 -43 -86 -71.5t-120 -28.5z" />
    <glyph glyph-name="d" unicode="d" horiz-adv-x="657" 
d="M312 19q46 0 86.5 18t70.5 49.5t47.5 73.5t17.5 91v2q0 49 -17.5 91t-47.5 73.5t-70.5 49.5t-86.5 18q-48 0 -88 -17t-69 -48t-45 -73t-16 -93v-2q0 -50 16.5 -92.5t45.5 -74t69 -49t87 -17.5zM309 -12q-51 0 -96.5 19.5t-79 54.5t-53.5 83t-20 106v2q0 57 20 105.5
t53.5 83.5t79 54.5t96.5 19.5q42 0 77 -11.5t63.5 -32t49 -47.5t33.5 -58v363h32v-730h-32v139q-13 -32 -34 -59.5t-49.5 -47.5t-63.5 -32t-76 -12z" />
    <glyph glyph-name="e" unicode="e" horiz-adv-x="583" 
d="M495 269q-2 41 -15.5 80t-38 69.5t-61 49t-83.5 18.5q-43 0 -79.5 -16.5t-63.5 -45.5t-43 -69t-18 -86h402zM308 -12q-51 0 -96.5 18.5t-79.5 53t-54 83.5t-20 109v2q0 55 18 103t50.5 83.5t76.5 55.5t96 20q57 0 100 -22.5t72.5 -59.5t44 -84.5t14.5 -98.5v-11h-437
q2 -51 20.5 -92.5t47.5 -70t67.5 -44t80.5 -15.5q59 0 105 27t76 66l24 -19q-35 -45 -86 -74.5t-120 -29.5z" />
    <glyph glyph-name="f" unicode="f" horiz-adv-x="340" 
d="M126 475h-77v29h77v63q0 88 43 129q37 37 99 37q23 0 40 -3.5t33 -9.5v-31q-33 13 -73 13q-53 0 -81.5 -33t-28.5 -105v-60h181v-29h-181v-475h-32v475z" />
    <glyph glyph-name="g" unicode="g" horiz-adv-x="652" 
d="M309 68q44 0 84 16t70 43.5t48 65.5t18 82v2q0 44 -18 82t-48 66t-70 44t-84 16t-83 -15.5t-68 -43.5t-46 -65.5t-17 -82.5v-2q0 -44 17 -82t46 -66t68 -44t83 -16zM313 -163q-127 0 -230 78l19 26q96 -73 211 -73q48 0 87 13.5t67 40t43.5 66.5t15.5 93v91
q-29 -58 -86 -96.5t-134 -38.5q-49 0 -93.5 18t-78.5 50t-54 75.5t-20 94.5v2q0 51 20 95t54 76t78.5 50t93.5 18q38 0 72 -10t62 -28t49.5 -42.5t36.5 -52.5v121h33v-427q0 -56 -17 -99.5t-48 -74.5q-32 -32 -78.5 -49t-102.5 -17z" />
    <glyph glyph-name="h" unicode="h" horiz-adv-x="610" 
d="M93 730h32v-346q9 22 25 45.5t40 43t56 31.5t73 12q50 0 88.5 -16t65 -45.5t40.5 -70t14 -89.5v-295h-32v290q0 88 -46 142t-134 54q-40 0 -74.5 -15.5t-60 -42.5t-40.5 -64t-15 -80v-284h-32v730z" />
    <glyph glyph-name="i" unicode="i" horiz-adv-x="231" 
d="M99 504h33v-504h-33v504zM94 704h43v-61h-43v61z" />
    <glyph glyph-name="j" unicode="j" horiz-adv-x="232" 
d="M30 -165q-14 0 -21 1t-17 3v29q15 -4 37 -4q32 0 52 22t20 65v553h32v-551q0 -60 -28 -89t-75 -29zM95 704h43v-61h-43v61z" />
    <glyph glyph-name="k" unicode="k" horiz-adv-x="550" 
d="M93 730h32v-552l335 326h43l-232 -223l244 -281h-40l-226 259l-124 -119v-140h-32v730z" />
    <glyph glyph-name="l" unicode="l" horiz-adv-x="231" 
d="M99 730h33v-730h-33v730z" />
    <glyph glyph-name="m" unicode="m" horiz-adv-x="934" 
d="M93 504h32v-113q8 22 23.5 44.5t37 40.5t49.5 29t62 11q38 0 67.5 -10.5t51 -29t36.5 -42.5t23 -51q9 25 25.5 48.5t39.5 42.5t52 30.5t64 11.5q87 0 139 -56t52 -159v-301h-32v298q0 92 -44 140t-117 48q-32 0 -62.5 -14t-54 -39.5t-37.5 -60.5t-14 -78v-294h-32v299
q0 91 -44 139t-116 48q-33 0 -63.5 -15t-54 -41t-37.5 -61t-14 -76v-293h-32v504z" />
    <glyph glyph-name="n" unicode="n" horiz-adv-x="610" 
d="M93 504h32v-120q9 22 25 45.5t40 43t56 31.5t73 12q50 0 88.5 -16t65 -45.5t40.5 -70t14 -89.5v-295h-32v290q0 88 -46 142t-134 54q-40 0 -74.5 -15.5t-60 -42.5t-40.5 -64t-15 -80v-284h-32v504z" />
    <glyph glyph-name="o" unicode="o" horiz-adv-x="636" 
d="M319 18q50 0 91.5 18.5t71.5 50.5t46.5 74t16.5 90v2q0 48 -17 90t-47.5 74t-72.5 50.5t-91 18.5q-50 0 -91.5 -18.5t-71 -50.5t-46 -74t-16.5 -90v-2q0 -48 17 -90t47.5 -74t72 -50.5t90.5 -18.5zM318 -12q-58 0 -106 21t-82.5 57t-53.5 83.5t-19 100.5v2q0 53 19 101
t53.5 84t83 57.5t106.5 21.5t105.5 -21t82 -57t53.5 -83.5t19 -100.5v-2q0 -53 -19 -101t-53.5 -84t-82.5 -57.5t-106 -21.5z" />
    <glyph glyph-name="p" unicode="p" horiz-adv-x="657" 
d="M345 19q48 0 88 17t69 48t45 73t16 93v2q0 50 -16.5 92.5t-45.5 74t-69 49t-87 17.5t-87.5 -18t-70.5 -49.5t-47 -73.5t-17 -91v-2q0 -49 17.5 -91t47.5 -73.5t70.5 -49.5t86.5 -18zM93 504h32v-139q13 31 34 59t49.5 48t63.5 32t76 12q51 0 96.5 -19.5t79 -54.5
t53.5 -83t20 -106v-2q0 -57 -20 -105.5t-53.5 -83.5t-79 -54.5t-96.5 -19.5q-42 0 -77 11.5t-63.5 32t-49 47.5t-33.5 58v-297h-32v664z" />
    <glyph glyph-name="q" unicode="q" horiz-adv-x="657" 
d="M312 19q46 0 86.5 18t70.5 49.5t47.5 73.5t17.5 91v2q0 49 -17.5 91t-47.5 73.5t-70.5 49.5t-86.5 18q-48 0 -88 -17t-69 -48t-45 -73t-16 -93v-2q0 -50 16.5 -92.5t45.5 -74t69 -49t87 -17.5zM532 139q-13 -32 -34 -59.5t-49.5 -47.5t-63.5 -32t-76 -12
q-51 0 -96.5 19.5t-79 54.5t-53.5 83t-20 106v2q0 57 20 105.5t53.5 83.5t79 54.5t96.5 19.5q42 0 77 -11.5t63.5 -32t49 -47.5t33.5 -58v137h32v-664h-32v299z" />
    <glyph glyph-name="r" unicode="r" horiz-adv-x="361" 
d="M93 504h32v-154q11 32 31 62t47 53t61.5 36.5t74.5 12.5v-33h-5q-46 0 -84.5 -20.5t-66 -54t-43 -77.5t-15.5 -90v-239h-32v504z" />
    <glyph glyph-name="s" unicode="s" horiz-adv-x="493" 
d="M251 -9q-54 0 -108.5 19.5t-96.5 54.5l19 25q42 -33 90.5 -51t97.5 -18q30 0 56.5 7.5t46 21.5t30.5 33.5t11 42.5v2q0 27 -13 45t-34.5 30.5t-49 21.5t-56.5 17q-35 10 -67 21t-56 26t-38 36.5t-14 53.5v2q0 28 12.5 52t35 42t54 28t70.5 10q44 0 90.5 -14.5t86.5 -41.5
l-18 -27q-36 26 -78 39.5t-82 13.5q-63 0 -100.5 -28.5t-37.5 -70.5v-2q0 -24 12.5 -40.5t33.5 -29t48.5 -21.5t58.5 -18q34 -9 66 -20t56 -27t38.5 -39t14.5 -56v-2q0 -31 -14 -56.5t-38 -43.5t-56.5 -28t-70.5 -10z" />
    <glyph glyph-name="t" unicode="t" horiz-adv-x="384" 
d="M254 -9q-61 0 -97.5 34.5t-36.5 103.5v346h-77v29h77v169h32v-169h183v-29h-183v-343q0 -56 27.5 -83.5t77.5 -27.5q37 0 76 18v-31q-35 -17 -79 -17z" />
    <glyph glyph-name="u" unicode="u" horiz-adv-x="610" 
d="M291 -12q-50 0 -88.5 16t-65 45.5t-40.5 70t-14 89.5v295h32v-290q0 -88 46 -142t134 -54q40 0 74.5 15.5t60 42.5t40.5 64t15 80v284h32v-504h-32v120q-9 -23 -25 -46t-40 -42.5t-56.5 -31.5t-72.5 -12z" />
    <glyph glyph-name="v" unicode="v" horiz-adv-x="569" 
d="M41 504h37l207 -469l208 469h35l-230 -508h-26z" />
    <glyph glyph-name="w" unicode="w" horiz-adv-x="827" 
d="M48 504h36l158 -462l159 465h26l159 -465l159 462h33l-179 -508h-27l-158 460l-159 -460h-27z" />
    <glyph glyph-name="x" unicode="x" horiz-adv-x="546" 
d="M253 256l-207 248h40l187 -226l189 226h38l-207 -247l215 -257h-40l-195 235l-197 -235h-38z" />
    <glyph glyph-name="y" unicode="y" horiz-adv-x="577" 
d="M145 -163q-28 0 -52.5 7t-44.5 18l13 27q18 -10 39.5 -16t45.5 -6q21 0 38.5 6t33 21t31.5 41t34 66l-242 503h36l222 -469l203 469h34l-227 -517q-20 -45 -38.5 -74t-38 -46t-41 -23.5t-46.5 -6.5z" />
    <glyph glyph-name="z" unicode="z" horiz-adv-x="514" 
d="M45 18l376 457h-363v29h410v-18l-375 -457h377v-29h-425v18z" />
    <glyph glyph-name="braceleft" unicode="{" horiz-adv-x="456" 
d="M389 -141q-66 13 -105 31.5t-58.5 44t-25 58t-5.5 71.5v79q0 27 -6 51t-20.5 41.5t-38 27.5t-58.5 10h-22v28h22q35 0 58.5 10t38 27.5t20.5 41.5t6 51v79q0 39 5.5 71.5t25 58t58.5 44t105 31.5l5 -24q-58 -13 -91.5 -29.5t-50 -38.5t-20.5 -50.5t-4 -64.5v-78
q0 -61 -27 -97.5t-81 -45.5q108 -21 108 -143v-78q0 -36 4 -64.5t20.5 -50.5t50 -38.5t91.5 -29.5z" />
    <glyph glyph-name="bar" unicode="|" horiz-adv-x="269" 
d="M120 798h29v-926h-29v926z" />
    <glyph glyph-name="braceright" unicode="}" horiz-adv-x="456" 
d="M62 -117q58 13 91.5 29.5t50 38.5t20.5 50.5t4 64.5v78q0 61 27 97.5t81 45.5q-108 21 -108 143v78q0 36 -4 64.5t-20.5 50.5t-50 38.5t-91.5 29.5l5 24q66 -13 105 -31.5t58.5 -44t25 -58t5.5 -71.5v-79q0 -27 6 -51t20.5 -41.5t38 -27.5t58.5 -10h22v-28h-22
q-35 0 -58.5 -10t-38 -27.5t-20.5 -41.5t-6 -51v-79q0 -39 -5.5 -71.5t-25 -58t-58.5 -44t-105 -31.5z" />
    <glyph glyph-name="asciitilde" unicode="~" horiz-adv-x="448" 
d="M83 254q11 48 31 66.5t46 18.5q15 0 32 -8t34.5 -17.5t33.5 -17.5t29 -8q18 0 30.5 12t23.5 46l22 -6q-11 -48 -31 -66.5t-46 -18.5q-15 0 -32.5 8t-34.5 17.5t-33 17.5t-29 8q-18 0 -30.5 -12t-23.5 -45z" />
    <glyph glyph-name="nonbreakingspace" unicode="&#xa0;" horiz-adv-x="288" 
 />
    <glyph glyph-name="exclamdown" unicode="&#xa1;" horiz-adv-x="217" 
d="M90 93l10 424h17l10 -424v-93h-37v93zM85 700h48v-65h-48v65z" />
    <glyph glyph-name="cent" unicode="&#xa2;" horiz-adv-x="569" 
d="M342 589h-20q-47 0 -87.5 -18.5t-70.5 -50t-47.5 -74t-17.5 -89.5v-2q0 -38 11.5 -73.5t32 -64.5t48.5 -51t62 -34zM246 102q-40 12 -73 37t-57 58t-37 73t-13 84v2q0 53 20 100.5t54.5 83.5t81.5 57.5t101 21.5h11.5t12.5 -1l17 88h32l-18 -92q48 -11 83 -35t64 -53
l-23 -23q-26 26 -57.5 49t-73.5 32l-90 -460q19 -3 41 -3q60 0 105 25.5t79 63.5l22 -19q-38 -45 -88 -72.5t-120 -27.5q-11 0 -22 1t-22 3l-20 -101h-31z" />
    <glyph glyph-name="sterling" unicode="&#xa3;" horiz-adv-x="617" 
d="M67 18l89 13v282h-89v32h89v117q0 63 17 110.5t49 79.5q28 28 64.5 43t83.5 15q69 0 117.5 -31t80.5 -78l-26 -20q-30 42 -71 70t-102 28q-41 0 -70.5 -12.5t-52.5 -35.5q-26 -26 -41 -68t-15 -99v-119h300v-32h-300v-282h374v-31h-497v18z" />
    <glyph glyph-name="currency" unicode="&#xa4;" horiz-adv-x="720" 
d="M426 -12q-54 0 -100 19t-82.5 54t-61.5 84t-37 109h-92v31h87q-3 31 -3 63v2q0 39 6 74h-90v32h95q13 55 38 102t60.5 81.5t79 53.5t93.5 19q44 0 79.5 -10.5t64.5 -29.5t52 -44.5t43 -56.5l-27 -18q-19 29 -40 53t-46.5 41t-56.5 26t-70 9q-44 0 -81.5 -17t-68.5 -47
t-53 -71.5t-34 -90.5h301v-32h-307q-2 -17 -4 -35.5t-2 -37.5v-2q0 -17 1 -32.5t3 -31.5h309v-31h-303q11 -53 33.5 -96t54.5 -74.5t72.5 -48.5t87.5 -17q36 0 66.5 10.5t55.5 28.5t46 43t39 54l26 -16q-20 -32 -43.5 -59.5t-52 -47.5t-62.5 -31.5t-76 -11.5z" />
    <glyph glyph-name="yen" unicode="&#xa5;" horiz-adv-x="645" 
d="M306 122h-209v30h209v129h-209v30h195l-266 389h42l256 -382l255 382h40l-266 -389h194v-30h-208v-129h208v-30h-208v-122h-33v122z" />
    <glyph glyph-name="section" unicode="&#xa7;" horiz-adv-x="632" 
d="M386 247q30 0 56.5 6.5t45.5 18.5t30 27.5t11 33.5v2q0 34 -38 59t-129 45q-35 8 -62.5 11t-52.5 3q-30 0 -56.5 -6.5t-45.5 -18.5t-30 -27.5t-11 -33.5v-2q0 -35 37.5 -60t129.5 -44q35 -8 62.5 -11t52.5 -3zM321 -10q-32 0 -62.5 6t-58 17t-51 25t-40.5 31l23 24
q32 -29 83 -50t108 -21q69 0 105.5 25.5t36.5 63.5v2q0 43 -48 69.5t-151 47.5q-102 21 -149 52t-47 80v2q0 46 45.5 78.5t129.5 32.5q-49 16 -81 43t-32 69v2q0 52 48 86.5t132 34.5q63 0 120 -23t92 -56l-24 -24q-31 29 -82 50t-108 21q-69 0 -105.5 -25.5t-36.5 -63.5v-2
q0 -43 48 -69.5t151 -47.5q102 -21 149 -52t47 -80v-2q0 -46 -45.5 -78.5t-129.5 -32.5q49 -16 80.5 -43t31.5 -69v-2q0 -52 -47.5 -86.5t-131.5 -34.5z" />
    <glyph glyph-name="dieresis" unicode="&#xa8;" 
d="M151 670h50v-64h-50v64zM299 670h50v-64h-50v64z" />
    <glyph glyph-name="copyright" unicode="&#xa9;" horiz-adv-x="830" 
d="M421 165q-39 0 -72.5 15t-57.5 40.5t-38 60t-14 72.5v2q0 39 14 73.5t38.5 60.5t58 41t72.5 15q51 0 83 -17.5t58 -42.5l-21 -21q-21 21 -50 37.5t-71 16.5q-33 0 -61 -13t-48 -35t-31.5 -51.5t-11.5 -62.5q-2 0 0 -2q0 -33 11.5 -62t32 -51.5t48.5 -35.5t61 -13
q42 0 70.5 15.5t52.5 40.5l20 -19q-26 -27 -59.5 -45.5t-84.5 -18.5zM415 9q71 0 133 27t107.5 73.5t72 108t26.5 131.5v2q0 70 -26.5 132t-72 108t-107.5 73t-133 27t-133 -27t-108 -73.5t-72 -108t-26 -131.5v-2q0 -70 26 -132t72 -108t108 -73t133 -27zM415 -12
q-76 0 -142 28.5t-115 77.5t-77 114.5t-28 140.5v2q0 74 28.5 140t77.5 115t115 77.5t141 28.5q76 0 142 -28.5t115 -77.5t77 -114.5t28 -140.5v-2q0 -74 -28.5 -140t-77.5 -115t-115 -77.5t-141 -28.5z" />
    <glyph glyph-name="ordfeminine" unicode="&#xaa;" horiz-adv-x="408" 
d="M184 437q46 0 77 25t31 61v32q-19 5 -41.5 9t-52.5 4q-42 0 -68 -17.5t-26 -47.5v-2q0 -31 24 -47.5t56 -16.5zM74 333h249v-25h-249v25zM183 413q-20 0 -39 5.5t-34 16t-24.5 27t-9.5 37.5v2q0 45 35 67.5t89 22.5q29 0 50.5 -3.5t41.5 -9.5v13q0 44 -24.5 65.5
t-68.5 21.5q-26 0 -46.5 -6.5t-41.5 -17.5l-10 24q24 11 47.5 17.5t52.5 6.5q58 0 90 -31q27 -27 27 -79v-173h-26v50q-14 -22 -40.5 -39t-68.5 -17z" />
    <glyph glyph-name="guillemotleft" unicode="&#xab;" horiz-adv-x="483" 
d="M47 252v6l169 207l22 -16l-153 -194l153 -194l-22 -16zM230 252v6l170 207l22 -16l-153 -194l153 -194l-22 -16z" />
    <glyph glyph-name="registered" unicode="&#xae;" horiz-adv-x="830" 
d="M434 356q49 0 78 21t29 59v2q0 36 -27.5 57t-77.5 21h-125v-160h123zM281 543h157q71 0 105 -36q28 -26 28 -67v-2q0 -46 -29.5 -72t-77.5 -33l121 -156h-37l-118 152h-3h-116v-152h-30v366zM415 9q71 0 133 27t107.5 73.5t72 108t26.5 131.5v2q0 70 -26.5 132t-72 108
t-107.5 73t-133 27t-133 -27t-108 -73.5t-72 -108t-26 -131.5v-2q0 -70 26 -132t72 -108t108 -73t133 -27zM415 -12q-76 0 -142 28.5t-115 77.5t-77 114.5t-28 140.5v2q0 74 28.5 140t77.5 115t115 77.5t141 28.5q76 0 142 -28.5t115 -77.5t77 -114.5t28 -140.5v-2
q0 -74 -28.5 -140t-77.5 -115t-115 -77.5t-141 -28.5z" />
    <glyph glyph-name="macron" unicode="&#xaf;" 
d="M109 645h282v-32h-282v32z" />
    <glyph glyph-name="macron" unicode="&#x2c9;" 
d="M109 645h282v-32h-282v32z" />
    <glyph glyph-name="degree" unicode="&#xb0;" horiz-adv-x="438" 
d="M219 449q24 0 44.5 9t36 24.5t24.5 36t9 43.5v2q0 23 -9 43.5t-24.5 36.5t-36 25t-44.5 9t-44.5 -9t-36 -25t-24.5 -36.5t-9 -43.5v-2q0 -23 9 -43.5t24.5 -36t36 -24.5t44.5 -9zM219 420q-29 0 -55.5 11.5t-46.5 31t-32 45t-12 54.5v2q0 29 12 54.5t32 45t46.5 31
t55.5 11.5t55.5 -11.5t46.5 -31t32 -45t12 -54.5v-2q0 -29 -12 -54.5t-32 -45t-46.5 -31t-55.5 -11.5z" />
    <glyph glyph-name="plusminus" unicode="&#xb1;" horiz-adv-x="576" 
d="M290 -12q-83 0 -148 35.5t-107 92.5l28 21q38 -54 96 -86t132 -32q41 0 77 11.5t62.5 33t42 51.5t15.5 68v2q0 39 -16 68t-44.5 47.5t-69 28t-89.5 9.5h-75v31h76q43 0 79.5 11t63.5 31t42 49.5t15 65.5v2q0 32 -14 60t-38.5 48.5t-59 32.5t-75.5 12q-69 0 -119.5 -31.5
t-87.5 -84.5l-26 16q38 58 97 94.5t137 36.5q49 0 89.5 -14.5t69.5 -39t45.5 -58t16.5 -71.5v-2q0 -36 -12.5 -65t-33.5 -50.5t-48 -35t-56 -19.5q34 -7 64.5 -20t53.5 -34t36.5 -50t13.5 -67v-2q0 -42 -18 -78t-49.5 -62.5t-74 -41t-91.5 -14.5z" />
    <glyph glyph-name="acute" unicode="&#xb4;" 
d="M295 723l39 -20l-107 -108h-25z" />
    <glyph glyph-name="mu" unicode="&#xb5;" horiz-adv-x="845" 
d="M424 19q70 0 127.5 26.5t98.5 71.5t64 105t23 126v2q0 66 -23 126t-64.5 105.5t-99.5 72.5t-128 27t-128 -26.5t-99 -71.5t-64 -105t-23 -126v-2q0 -66 23 -126t65 -105.5t100 -72.5t128 -27zM604 38q-38 -24 -83.5 -37t-98.5 -13q-80 0 -144 29.5t-110 79.5t-70.5 115
t-24.5 137v2q0 72 25 137t70.5 115t110 79.5t144.5 29.5q79 0 143.5 -29.5t110.5 -79.5t70.5 -115t24.5 -137q2 0 0 -2q0 -88 -36.5 -164.5t-102.5 -127.5l165 -155v-3h-43z" />
    <glyph glyph-name="mu" unicode="&#x3bc;" horiz-adv-x="845" 
d="M424 19q70 0 127.5 26.5t98.5 71.5t64 105t23 126v2q0 66 -23 126t-64.5 105.5t-99.5 72.5t-128 27t-128 -26.5t-99 -71.5t-64 -105t-23 -126v-2q0 -66 23 -126t65 -105.5t100 -72.5t128 -27zM604 38q-38 -24 -83.5 -37t-98.5 -13q-80 0 -144 29.5t-110 79.5t-70.5 115
t-24.5 137v2q0 72 25 137t70.5 115t110 79.5t144.5 29.5q79 0 143.5 -29.5t110.5 -79.5t70.5 -115t24.5 -137q2 0 0 -2q0 -88 -36.5 -164.5t-102.5 -127.5l165 -155v-3h-43z" />
    <glyph glyph-name="paragraph" unicode="&#xb6;" horiz-adv-x="467" 
d="M332 277h-9q-57 0 -106 14t-86 41t-58 66t-21 90v2q0 49 19 88t53.5 66t81 41.5t102.5 14.5h59v-700h-35v277z" />
    <glyph glyph-name="periodcentered" unicode="&#xb7;" horiz-adv-x="190" 
d="M71 327h48v-65h-48v65z" />
    <glyph glyph-name="periodcentered" unicode="&#x2219;" horiz-adv-x="190" 
d="M71 327h48v-65h-48v65z" />
    <glyph glyph-name="cedilla" unicode="&#xb8;" 
d="M170 -127l88 134h26l-79 -151z" />
    <glyph glyph-name="ordmasculine" unicode="&#xba;" horiz-adv-x="409" 
d="M206 439q25 0 45.5 9.5t35.5 25.5t23.5 37.5t8.5 45.5v2q0 25 -9 46.5t-24.5 38t-36.5 26t-45 9.5q-25 0 -46 -9.5t-36 -25.5t-23.5 -37.5t-8.5 -45.5v-2q0 -25 8.5 -46.5t24 -38t37 -26t46.5 -9.5zM64 333h281v-25h-281v25zM204 413q-32 0 -58.5 11.5t-45 31.5t-29 46
t-10.5 55v2q0 30 10.5 56.5t29.5 46.5t45.5 31.5t58.5 11.5q31 0 57.5 -11.5t45.5 -31t29.5 -46t10.5 -55.5v-2q0 -29 -10.5 -55.5t-30 -46.5t-46 -32t-57.5 -12z" />
    <glyph glyph-name="guillemotright" unicode="&#xbb;" horiz-adv-x="483" 
d="M61 61l153 194l-153 194l22 16l170 -207v-6l-170 -207zM245 61l153 194l-153 194l22 16l169 -207v-6l-169 -207z" />
    <glyph glyph-name="questiondown" unicode="&#xbf;" horiz-adv-x="513" 
d="M265 -9q-48 0 -87.5 15t-67.5 40.5t-43 60.5t-15 74v2q0 46 18 81t47.5 59.5t68.5 39t81 19.5l8 135h19l10 -159l-4 -4q-48 -2 -87 -14.5t-67.5 -34.5t-44 -52t-15.5 -68v-2q0 -34 13 -63.5t36.5 -51.5t56.5 -34.5t74 -12.5q61 0 110 30.5t84 81.5l25 -19
q-38 -55 -91.5 -89t-128.5 -34zM260 700h48v-65h-48v65z" />
    <glyph glyph-name="Agrave" unicode="&#xc0;" horiz-adv-x="776" 
d="M271 873l39 20l93 -128h-25zM589 235l-202 430l-201 -430h403zM372 705h32l332 -705h-37l-95 204h-433l-96 -204h-35z" />
    <glyph glyph-name="Aacute" unicode="&#xc1;" horiz-adv-x="776" 
d="M468 893l39 -20l-107 -108h-25zM589 235l-202 430l-201 -430h403zM372 705h32l332 -705h-37l-95 204h-433l-96 -204h-35z" />
    <glyph glyph-name="Acircumflex" unicode="&#xc2;" horiz-adv-x="776" 
d="M376 885h24l103 -122h-29l-86 85l-87 -85h-28zM589 235l-202 430l-201 -430h403zM372 705h32l332 -705h-37l-95 204h-433l-96 -204h-35z" />
    <glyph glyph-name="Atilde" unicode="&#xc3;" horiz-adv-x="776" 
d="M247 770q11 48 31 67t46 19q15 0 32 -8t34.5 -18t33.5 -18t29 -8q18 0 30.5 12.5t23.5 45.5l22 -5q-11 -48 -31 -66.5t-46 -18.5q-15 0 -32.5 8t-34.5 17.5t-33 17.5t-29 8q-18 0 -30.5 -12t-23.5 -46zM589 235l-202 430l-201 -430h403zM372 705h32l332 -705h-37l-95 204
h-433l-96 -204h-35z" />
    <glyph glyph-name="Adieresis" unicode="&#xc4;" horiz-adv-x="776" 
d="M289 840h50v-64h-50v64zM437 840h50v-64h-50v64zM589 235l-202 430l-201 -430h403zM372 705h32l332 -705h-37l-95 204h-433l-96 -204h-35z" />
    <glyph glyph-name="Aring" unicode="&#xc5;" horiz-adv-x="776" 
d="M589 235l-202 430l-201 -430h403zM388 693q29 0 50.5 20.5t21.5 49.5v2q0 29 -21.5 49.5t-50.5 20.5q-30 0 -51 -20.5t-21 -49.5v-2q0 -29 21.5 -49.5t50.5 -20.5zM358 675q-28 10 -48 33.5t-20 54.5v2q0 19 8 35.5t21.5 29t31 20t37.5 7.5q19 0 36.5 -7.5t31 -20
t21.5 -29t8 -35.5v-2q0 -30 -19 -54t-48 -33l318 -676h-37l-95 204h-433l-96 -204h-35z" />
    <glyph glyph-name="AE" unicode="&#xc6;" horiz-adv-x="1026" 
d="M481 235v434h-18l-272 -434h290zM447 700h511v-31h-443v-301h400v-31h-400v-306h448v-31h-482v204h-309l-127 -204h-37z" />
    <glyph glyph-name="Ccedilla" unicode="&#xc7;" horiz-adv-x="731" 
d="M322 -127l76 115q-71 4 -130.5 33.5t-102.5 78t-67.5 112.5t-24.5 136v2q0 74 26 139.5t72 115t109.5 78.5t138.5 29q49 0 87.5 -8.5t70.5 -23.5t58.5 -35t52.5 -44l-24 -25q-22 21 -46.5 40t-54.5 33.5t-65.5 23t-79.5 8.5q-67 0 -123.5 -26t-98 -71t-65 -105
t-23.5 -128v-2q0 -68 23.5 -128t65.5 -105t99 -71t123 -26q82 0 142 32t107 80l24 -23q-49 -50 -113 -84t-153 -36l-69 -132z" />
    <glyph glyph-name="Egrave" unicode="&#xc8;" horiz-adv-x="665" 
d="M253 873l39 20l93 -128h-25zM104 700h493v-31h-459v-301h415v-31h-415v-306h464v-31h-498v700z" />
    <glyph glyph-name="Eacute" unicode="&#xc9;" horiz-adv-x="665" 
d="M407 893l39 -20l-107 -108h-25zM104 700h493v-31h-459v-301h415v-31h-415v-306h464v-31h-498v700z" />
    <glyph glyph-name="Ecircumflex" unicode="&#xca;" horiz-adv-x="665" 
d="M337 887h24l103 -122h-29l-86 85l-87 -85h-28zM104 700h493v-31h-459v-301h415v-31h-415v-306h464v-31h-498v700z" />
    <glyph glyph-name="Edieresis" unicode="&#xcb;" horiz-adv-x="665" 
d="M250 840h50v-64h-50v64zM398 840h50v-64h-50v64zM104 700h493v-31h-459v-301h415v-31h-415v-306h464v-31h-498v700z" />
    <glyph glyph-name="Igrave" unicode="&#xcc;" horiz-adv-x="256" 
d="M13 873l39 20l93 -128h-25zM111 700h34v-700h-34v700z" />
    <glyph glyph-name="Iacute" unicode="&#xcd;" horiz-adv-x="256" 
d="M205 893l39 -20l-107 -108h-25zM111 700h34v-700h-34v700z" />
    <glyph glyph-name="Icircumflex" unicode="&#xce;" horiz-adv-x="256" 
d="M116 887h24l103 -122h-29l-86 85l-87 -85h-28zM111 700h34v-700h-34v700z" />
    <glyph glyph-name="Idieresis" unicode="&#xcf;" horiz-adv-x="256" 
d="M29 840h50v-64h-50v64zM177 840h50v-64h-50v64zM111 700h34v-700h-34v700z" />
    <glyph glyph-name="Eth" unicode="&#xd0;" horiz-adv-x="807" 
d="M363 31q75 0 137 24.5t106.5 67.5t68.5 101t24 124v2q0 66 -24.5 124.5t-68.5 101.5t-106 68t-138 25h-194v-301h244v-32h-244v-305h195zM134 336h-75v32h75v332h228q82 0 150.5 -27t118 -74t76.5 -110.5t27 -137.5v-2q0 -74 -27 -137.5t-76.5 -110.5t-118 -74
t-150.5 -27h-228v336z" />
    <glyph glyph-name="Ntilde" unicode="&#xd1;" horiz-adv-x="784" 
d="M251 770q11 48 31 67t46 19q15 0 32 -8t34.5 -18t33.5 -18t29 -8q18 0 30.5 12.5t23.5 45.5l22 -5q-11 -48 -31 -66.5t-46 -18.5q-15 0 -32.5 8t-34.5 17.5t-33 17.5t-29 8q-18 0 -30.5 -12t-23.5 -46zM104 700h31l512 -642v642h33v-700h-27l-516 647v-647h-33v700z" />
    <glyph glyph-name="Ograve" unicode="&#xd2;" horiz-adv-x="845" 
d="M302 873l39 20l93 -128h-25zM424 19q70 0 127.5 26.5t98.5 71.5t64 105t23 126v2q0 66 -23 126t-64.5 105.5t-99.5 72.5t-128 27t-128 -26.5t-99 -71.5t-64 -105t-23 -126v-2q0 -66 23 -126t65 -105.5t100 -72.5t128 -27zM422 -12q-80 0 -144 29.5t-110 79.5t-70.5 115
t-24.5 137v2q0 72 25 137t70.5 115t110 79.5t144.5 29.5q79 0 143.5 -29.5t110.5 -79.5t70.5 -115t24.5 -137q2 0 0 -2q0 -72 -25 -137t-70.5 -115t-110.5 -79.5t-144 -29.5z" />
    <glyph glyph-name="Oacute" unicode="&#xd3;" horiz-adv-x="845" 
d="M505 893l39 -20l-107 -108h-25zM424 19q70 0 127.5 26.5t98.5 71.5t64 105t23 126v2q0 66 -23 126t-64.5 105.5t-99.5 72.5t-128 27t-128 -26.5t-99 -71.5t-64 -105t-23 -126v-2q0 -66 23 -126t65 -105.5t100 -72.5t128 -27zM422 -12q-80 0 -144 29.5t-110 79.5
t-70.5 115t-24.5 137v2q0 72 25 137t70.5 115t110 79.5t144.5 29.5q79 0 143.5 -29.5t110.5 -79.5t70.5 -115t24.5 -137q2 0 0 -2q0 -72 -25 -137t-70.5 -115t-110.5 -79.5t-144 -29.5z" />
    <glyph glyph-name="Ocircumflex" unicode="&#xd4;" horiz-adv-x="845" 
d="M411 887h24l103 -122h-29l-86 85l-87 -85h-28zM424 19q70 0 127.5 26.5t98.5 71.5t64 105t23 126v2q0 66 -23 126t-64.5 105.5t-99.5 72.5t-128 27t-128 -26.5t-99 -71.5t-64 -105t-23 -126v-2q0 -66 23 -126t65 -105.5t100 -72.5t128 -27zM422 -12q-80 0 -144 29.5
t-110 79.5t-70.5 115t-24.5 137v2q0 72 25 137t70.5 115t110 79.5t144.5 29.5q79 0 143.5 -29.5t110.5 -79.5t70.5 -115t24.5 -137q2 0 0 -2q0 -72 -25 -137t-70.5 -115t-110.5 -79.5t-144 -29.5z" />
    <glyph glyph-name="Otilde" unicode="&#xd5;" horiz-adv-x="845" 
d="M282 770q11 48 31 67t46 19q15 0 32 -8t34.5 -18t33.5 -18t29 -8q18 0 30.5 12.5t23.5 45.5l22 -5q-11 -48 -31 -66.5t-46 -18.5q-15 0 -32.5 8t-34.5 17.5t-33 17.5t-29 8q-18 0 -30.5 -12t-23.5 -46zM424 19q70 0 127.5 26.5t98.5 71.5t64 105t23 126v2q0 66 -23 126
t-64.5 105.5t-99.5 72.5t-128 27t-128 -26.5t-99 -71.5t-64 -105t-23 -126v-2q0 -66 23 -126t65 -105.5t100 -72.5t128 -27zM422 -12q-80 0 -144 29.5t-110 79.5t-70.5 115t-24.5 137v2q0 72 25 137t70.5 115t110 79.5t144.5 29.5q79 0 143.5 -29.5t110.5 -79.5t70.5 -115
t24.5 -137q2 0 0 -2q0 -72 -25 -137t-70.5 -115t-110.5 -79.5t-144 -29.5z" />
    <glyph glyph-name="Odieresis" unicode="&#xd6;" horiz-adv-x="845" 
d="M324 840h50v-64h-50v64zM472 840h50v-64h-50v64zM424 19q70 0 127.5 26.5t98.5 71.5t64 105t23 126v2q0 66 -23 126t-64.5 105.5t-99.5 72.5t-128 27t-128 -26.5t-99 -71.5t-64 -105t-23 -126v-2q0 -66 23 -126t65 -105.5t100 -72.5t128 -27zM422 -12q-80 0 -144 29.5
t-110 79.5t-70.5 115t-24.5 137v2q0 72 25 137t70.5 115t110 79.5t144.5 29.5q79 0 143.5 -29.5t110.5 -79.5t70.5 -115t24.5 -137q2 0 0 -2q0 -72 -25 -137t-70.5 -115t-110.5 -79.5t-144 -29.5z" />
    <glyph glyph-name="Oslash" unicode="&#xd8;" horiz-adv-x="845" 
d="M424 19q70 0 127.5 26.5t98.5 71.5t64 105t23 126v2q0 66 -21.5 124.5t-61.5 103.5l-444 -476q41 -39 94.5 -61t119.5 -22zM635 598q-41 39 -94.5 61t-118.5 22q-70 0 -128 -26.5t-99 -71.5t-64 -105t-23 -126v-2q0 -66 21.5 -124.5t61.5 -103.5zM422 -12
q-71 0 -130 23.5t-104 65.5l-76 -82h-40l96 102q-46 51 -70.5 115.5t-24.5 136.5v2q0 72 25 137t70.5 115t110 79.5t144.5 29.5q72 0 130.5 -23.5t103.5 -65.5l76 82h40l-96 -102q46 -51 70.5 -115.5t24.5 -136.5q2 0 0 -2q0 -72 -25 -137t-70.5 -115t-110.5 -79.5
t-144 -29.5z" />
    <glyph glyph-name="Ugrave" unicode="&#xd9;" horiz-adv-x="755" 
d="M269 871l39 20l93 -128h-25zM378 -11q-63 0 -115.5 20t-90 59t-58.5 97.5t-21 136.5v398h34v-396q0 -70 18 -123t51 -89t79.5 -54t103.5 -18t103 17.5t78.5 53t50 88t17.5 123.5v398h34v-395q0 -78 -20.5 -137.5t-58 -99t-90 -59.5t-115.5 -20z" />
    <glyph glyph-name="Uacute" unicode="&#xda;" horiz-adv-x="755" 
d="M447 891l39 -20l-107 -108h-25zM378 -11q-63 0 -115.5 20t-90 59t-58.5 97.5t-21 136.5v398h34v-396q0 -70 18 -123t51 -89t79.5 -54t103.5 -18t103 17.5t78.5 53t50 88t17.5 123.5v398h34v-395q0 -78 -20.5 -137.5t-58 -99t-90 -59.5t-115.5 -20z" />
    <glyph glyph-name="Ucircumflex" unicode="&#xdb;" horiz-adv-x="755" 
d="M366 885h24l103 -122h-29l-86 85l-87 -85h-28zM378 -11q-63 0 -115.5 20t-90 59t-58.5 97.5t-21 136.5v398h34v-396q0 -70 18 -123t51 -89t79.5 -54t103.5 -18t103 17.5t78.5 53t50 88t17.5 123.5v398h34v-395q0 -78 -20.5 -137.5t-58 -99t-90 -59.5t-115.5 -20z" />
    <glyph glyph-name="Udieresis" unicode="&#xdc;" horiz-adv-x="755" 
d="M279 832h50v-64h-50v64zM427 832h50v-64h-50v64zM378 -11q-63 0 -115.5 20t-90 59t-58.5 97.5t-21 136.5v398h34v-396q0 -70 18 -123t51 -89t79.5 -54t103.5 -18t103 17.5t78.5 53t50 88t17.5 123.5v398h34v-395q0 -78 -20.5 -137.5t-58 -99t-90 -59.5t-115.5 -20z" />
    <glyph glyph-name="Yacute" unicode="&#xdd;" horiz-adv-x="681" 
d="M424 891l39 -20l-107 -108h-25zM324 287l-298 413h42l274 -383l272 383h41l-297 -413v-287h-34v287z" />
    <glyph glyph-name="Thorn" unicode="&#xde;" horiz-adv-x="670" 
d="M346 168q54 0 98 12.5t75 36.5t48 58t17 78v2q0 88 -62.5 135t-171.5 47h-213v-369h209zM103 700h34v-132h216q61 0 110.5 -14.5t83.5 -41.5t52.5 -66.5t18.5 -88.5v-2q0 -53 -20 -93.5t-56.5 -68.5t-86.5 -42t-110 -14h-208v-137h-34v700z" />
    <glyph glyph-name="germandbls" unicode="&#xdf;" horiz-adv-x="591" 
d="M273 27q50 1 91 12t70.5 31.5t46 50.5t16.5 69v2q0 72 -60.5 112t-163.5 48v28q37 10 70 26t57 38.5t38 51t14 64.5v2q0 29 -11.5 55.5t-32.5 46t-49.5 31t-62.5 11.5q-41 0 -73 -15t-53.5 -41.5t-33 -64t-11.5 -82.5v-503h-32v504q0 51 13.5 94t39.5 73.5t64 47.5t87 17
q42 0 77 -13.5t60 -37t39 -55t14 -66.5v-2q0 -36 -12.5 -65.5t-34.5 -53.5t-51.5 -41.5t-63.5 -29.5q43 -6 80.5 -20t65.5 -36.5t44 -53t16 -69.5v-2q0 -45 -19 -81t-53 -61t-81.5 -38.5t-104.5 -13.5v30z" />
    <glyph glyph-name="agrave" unicode="&#xe0;" horiz-adv-x="569" 
d="M166 703l39 20l93 -128h-25zM244 18q46 0 84.5 13.5t66.5 36.5t44 53.5t16 64.5v62q-37 12 -81 20t-101 8q-42 0 -76.5 -8.5t-59 -25t-38.5 -41t-14 -55.5v-2q0 -31 13 -54.5t35 -39.5t50.5 -24t60.5 -8zM242 -12q-36 0 -70.5 9.5t-61.5 29t-43 48.5t-16 67v2
q0 39 17 69.5t46.5 51t70.5 31t89 10.5q53 0 98 -8t82 -20v34q0 86 -47.5 128t-132.5 42q-47 0 -86.5 -11.5t-77.5 -30.5l-12 28q42 20 84.5 32t93.5 12q105 0 160 -55q24 -25 37 -60.5t13 -82.5v-314h-32v105q-10 -21 -28 -41.5t-44.5 -37.5t-61.5 -27.5t-78 -10.5z" />
    <glyph glyph-name="aacute" unicode="&#xe1;" horiz-adv-x="569" 
d="M352 723l39 -20l-107 -108h-25zM244 18q46 0 84.5 13.5t66.5 36.5t44 53.5t16 64.5v62q-37 12 -81 20t-101 8q-42 0 -76.5 -8.5t-59 -25t-38.5 -41t-14 -55.5v-2q0 -31 13 -54.5t35 -39.5t50.5 -24t60.5 -8zM242 -12q-36 0 -70.5 9.5t-61.5 29t-43 48.5t-16 67v2
q0 39 17 69.5t46.5 51t70.5 31t89 10.5q53 0 98 -8t82 -20v34q0 86 -47.5 128t-132.5 42q-47 0 -86.5 -11.5t-77.5 -30.5l-12 28q42 20 84.5 32t93.5 12q105 0 160 -55q24 -25 37 -60.5t13 -82.5v-314h-32v105q-10 -21 -28 -41.5t-44.5 -37.5t-61.5 -27.5t-78 -10.5z" />
    <glyph glyph-name="acircumflex" unicode="&#xe2;" horiz-adv-x="569" 
d="M277 717h24l103 -122h-29l-86 85l-87 -85h-28zM244 18q46 0 84.5 13.5t66.5 36.5t44 53.5t16 64.5v62q-37 12 -81 20t-101 8q-42 0 -76.5 -8.5t-59 -25t-38.5 -41t-14 -55.5v-2q0 -31 13 -54.5t35 -39.5t50.5 -24t60.5 -8zM242 -12q-36 0 -70.5 9.5t-61.5 29t-43 48.5
t-16 67v2q0 39 17 69.5t46.5 51t70.5 31t89 10.5q53 0 98 -8t82 -20v34q0 86 -47.5 128t-132.5 42q-47 0 -86.5 -11.5t-77.5 -30.5l-12 28q42 20 84.5 32t93.5 12q105 0 160 -55q24 -25 37 -60.5t13 -82.5v-314h-32v105q-10 -21 -28 -41.5t-44.5 -37.5t-61.5 -27.5
t-78 -10.5z" />
    <glyph glyph-name="atilde" unicode="&#xe3;" horiz-adv-x="569" 
d="M148 600q11 48 31 67t46 19q15 0 32 -8t34.5 -18t33.5 -18t29 -8q18 0 30.5 12.5t23.5 45.5l22 -5q-11 -48 -31 -66.5t-46 -18.5q-15 0 -32.5 8t-34.5 17.5t-33 17.5t-29 8q-18 0 -30.5 -12t-23.5 -46zM244 18q46 0 84.5 13.5t66.5 36.5t44 53.5t16 64.5v62
q-37 12 -81 20t-101 8q-42 0 -76.5 -8.5t-59 -25t-38.5 -41t-14 -55.5v-2q0 -31 13 -54.5t35 -39.5t50.5 -24t60.5 -8zM242 -12q-36 0 -70.5 9.5t-61.5 29t-43 48.5t-16 67v2q0 39 17 69.5t46.5 51t70.5 31t89 10.5q53 0 98 -8t82 -20v34q0 86 -47.5 128t-132.5 42
q-47 0 -86.5 -11.5t-77.5 -30.5l-12 28q42 20 84.5 32t93.5 12q105 0 160 -55q24 -25 37 -60.5t13 -82.5v-314h-32v105q-10 -21 -28 -41.5t-44.5 -37.5t-61.5 -27.5t-78 -10.5z" />
    <glyph glyph-name="adieresis" unicode="&#xe4;" horiz-adv-x="569" 
d="M190 670h50v-64h-50v64zM338 670h50v-64h-50v64zM244 18q46 0 84.5 13.5t66.5 36.5t44 53.5t16 64.5v62q-37 12 -81 20t-101 8q-42 0 -76.5 -8.5t-59 -25t-38.5 -41t-14 -55.5v-2q0 -31 13 -54.5t35 -39.5t50.5 -24t60.5 -8zM242 -12q-36 0 -70.5 9.5t-61.5 29t-43 48.5
t-16 67v2q0 39 17 69.5t46.5 51t70.5 31t89 10.5q53 0 98 -8t82 -20v34q0 86 -47.5 128t-132.5 42q-47 0 -86.5 -11.5t-77.5 -30.5l-12 28q42 20 84.5 32t93.5 12q105 0 160 -55q24 -25 37 -60.5t13 -82.5v-314h-32v105q-10 -21 -28 -41.5t-44.5 -37.5t-61.5 -27.5
t-78 -10.5z" />
    <glyph glyph-name="aring" unicode="&#xe5;" horiz-adv-x="569" 
d="M287 616q29 0 50.5 20.5t21.5 49.5v2q0 29 -21.5 49.5t-50.5 20.5t-50.5 -20.5t-21.5 -49.5v-2q0 -29 21.5 -49.5t50.5 -20.5zM287 594q-19 0 -36.5 7.5t-31 20t-21.5 29t-8 35.5v2q0 19 8 35.5t21.5 29t31 20t36.5 7.5t36.5 -7.5t31 -20t21.5 -29t8 -35.5v-2
q0 -19 -8 -35.5t-21.5 -29t-31 -20t-36.5 -7.5zM244 18q46 0 84.5 13.5t66.5 36.5t44 53.5t16 64.5v62q-37 12 -81 20t-101 8q-42 0 -76.5 -8.5t-59 -25t-38.5 -41t-14 -55.5v-2q0 -31 13 -54.5t35 -39.5t50.5 -24t60.5 -8zM242 -12q-36 0 -70.5 9.5t-61.5 29t-43 48.5
t-16 67v2q0 39 17 69.5t46.5 51t70.5 31t89 10.5q53 0 98 -8t82 -20v34q0 86 -47.5 128t-132.5 42q-47 0 -86.5 -11.5t-77.5 -30.5l-12 28q42 20 84.5 32t93.5 12q105 0 160 -55q24 -25 37 -60.5t13 -82.5v-314h-32v105q-10 -21 -28 -41.5t-44.5 -37.5t-61.5 -27.5
t-78 -10.5z" />
    <glyph glyph-name="ae" unicode="&#xe6;" horiz-adv-x="970" 
d="M249 18q36 0 69 9.5t61.5 26t51 38t37.5 45.5q-22 51 -23 112q-36 12 -78 19.5t-96 7.5q-41 0 -75 -8.5t-59 -25t-38.5 -41t-13.5 -55.5v-2q0 -31 12.5 -54.5t34.5 -39.5t52 -24t65 -8zM882 269q-2 41 -15.5 80t-38.5 69.5t-61 49t-83 18.5q-43 0 -79.5 -16.5
t-63.5 -45.5t-43.5 -69t-18.5 -86h403zM247 -12q-39 0 -74.5 9.5t-62.5 29t-43 48.5t-16 67v2q0 39 17 69.5t46.5 51t70 31t87.5 10.5q51 0 94 -7.5t80 -19.5q1 7 1.5 17.5t1.5 17.5q-1 85 -48 126.5t-130 41.5q-46 0 -84.5 -11.5t-76.5 -30.5l-12 28q42 20 83.5 32t91.5 12
q81 0 132.5 -34.5t65.5 -106.5q28 66 84 105.5t130 39.5q57 0 100.5 -22.5t72.5 -59.5t44 -84.5t15 -98.5q0 -7 -1 -11h-437q2 -51 20 -92t47.5 -70t67.5 -44.5t80 -15.5q64 0 108.5 25t74.5 63l23 -20q-33 -42 -83 -70t-124 -28q-66 0 -122 31.5t-89 88.5
q-16 -22 -39 -43.5t-53 -38.5t-66 -27.5t-77 -10.5z" />
    <glyph glyph-name="ccedilla" unicode="&#xe7;" horiz-adv-x="565" 
d="M221 -127l76 116q-51 3 -94.5 25.5t-76 57.5t-50.5 81.5t-18 97.5v2q0 53 20 101t54.5 84t81.5 57t102 21q35 0 64 -7.5t53 -20t45 -29.5t39 -36l-23 -23q-33 35 -76 60.5t-103 25.5q-48 0 -88.5 -18.5t-70.5 -50t-47 -73.5t-17 -90v-2q0 -48 17.5 -90.5t48 -74.5
t71.5 -50.5t88 -18.5q60 0 104 26.5t77 63.5l23 -20q-36 -41 -83 -69.5t-113 -30.5l-69 -132z" />
    <glyph glyph-name="egrave" unicode="&#xe8;" horiz-adv-x="583" 
d="M187 703l39 20l93 -128h-25zM495 269q-2 41 -15.5 80t-38 69.5t-61 49t-83.5 18.5q-43 0 -79.5 -16.5t-63.5 -45.5t-43 -69t-18 -86h402zM308 -12q-51 0 -96.5 18.5t-79.5 53t-54 83.5t-20 109v2q0 55 18 103t50.5 83.5t76.5 55.5t96 20q57 0 100 -22.5t72.5 -59.5
t44 -84.5t14.5 -98.5v-11h-437q2 -51 20.5 -92.5t47.5 -70t67.5 -44t80.5 -15.5q59 0 105 27t76 66l24 -19q-35 -45 -86 -74.5t-120 -29.5z" />
    <glyph glyph-name="eacute" unicode="&#xe9;" horiz-adv-x="583" 
d="M355 723l39 -20l-107 -108h-25zM495 269q-2 41 -15.5 80t-38 69.5t-61 49t-83.5 18.5q-43 0 -79.5 -16.5t-63.5 -45.5t-43 -69t-18 -86h402zM308 -12q-51 0 -96.5 18.5t-79.5 53t-54 83.5t-20 109v2q0 55 18 103t50.5 83.5t76.5 55.5t96 20q57 0 100 -22.5t72.5 -59.5
t44 -84.5t14.5 -98.5v-11h-437q2 -51 20.5 -92.5t47.5 -70t67.5 -44t80.5 -15.5q59 0 105 27t76 66l24 -19q-35 -45 -86 -74.5t-120 -29.5z" />
    <glyph glyph-name="ecircumflex" unicode="&#xea;" horiz-adv-x="583" 
d="M284 717h24l103 -122h-29l-86 85l-87 -85h-28zM495 269q-2 41 -15.5 80t-38 69.5t-61 49t-83.5 18.5q-43 0 -79.5 -16.5t-63.5 -45.5t-43 -69t-18 -86h402zM308 -12q-51 0 -96.5 18.5t-79.5 53t-54 83.5t-20 109v2q0 55 18 103t50.5 83.5t76.5 55.5t96 20q57 0 100 -22.5
t72.5 -59.5t44 -84.5t14.5 -98.5v-11h-437q2 -51 20.5 -92.5t47.5 -70t67.5 -44t80.5 -15.5q59 0 105 27t76 66l24 -19q-35 -45 -86 -74.5t-120 -29.5z" />
    <glyph glyph-name="edieresis" unicode="&#xeb;" horiz-adv-x="583" 
d="M197 670h50v-64h-50v64zM345 670h50v-64h-50v64zM495 269q-2 41 -15.5 80t-38 69.5t-61 49t-83.5 18.5q-43 0 -79.5 -16.5t-63.5 -45.5t-43 -69t-18 -86h402zM308 -12q-51 0 -96.5 18.5t-79.5 53t-54 83.5t-20 109v2q0 55 18 103t50.5 83.5t76.5 55.5t96 20
q57 0 100 -22.5t72.5 -59.5t44 -84.5t14.5 -98.5v-11h-437q2 -51 20.5 -92.5t47.5 -70t67.5 -44t80.5 -15.5q59 0 105 27t76 66l24 -19q-35 -45 -86 -74.5t-120 -29.5z" />
    <glyph glyph-name="igrave" unicode="&#xec;" horiz-adv-x="231" 
d="M-1 703l39 20l93 -128h-25zM99 504h33v-504h-33v504z" />
    <glyph glyph-name="iacute" unicode="&#xed;" horiz-adv-x="231" 
d="M193 723l39 -20l-107 -108h-25zM99 504h33v-504h-33v504z" />
    <glyph glyph-name="icircumflex" unicode="&#xee;" horiz-adv-x="231" 
d="M103 717h24l103 -122h-29l-86 85l-87 -85h-28zM99 504h33v-504h-33v504z" />
    <glyph glyph-name="idieresis" unicode="&#xef;" horiz-adv-x="231" 
d="M16 670h50v-64h-50v64zM164 670h50v-64h-50v64zM99 504h33v-504h-33v504z" />
    <glyph glyph-name="eth" unicode="&#xf0;" horiz-adv-x="615" 
d="M310 18q46 0 85 17.5t67 48t44 71t16 87.5v2q0 44 -17 82t-46.5 66t-69.5 44t-86 16t-84.5 -17t-67 -46t-44.5 -68t-16 -84v-2q0 -44 17 -83t46 -69t69 -47.5t87 -17.5zM308 -12q-53 0 -99 20t-80 53.5t-53 78.5t-19 96v2q0 52 19.5 96.5t52.5 77.5t77 51.5t94 18.5
q54 0 95 -17.5t70 -41.5l-151 219l-141 -74l-18 24l142 74l-44 64h41l32 -49l104 55l18 -25l-105 -54l145 -213q25 -38 46.5 -88.5t21.5 -106.5v-2q0 -54 -18 -101.5t-51 -82.5t-78.5 -55t-100.5 -20z" />
    <glyph glyph-name="ntilde" unicode="&#xf1;" horiz-adv-x="610" 
d="M169 600q11 48 31 67t46 19q15 0 32 -8t34.5 -18t33.5 -18t29 -8q18 0 30.5 12.5t23.5 45.5l22 -5q-11 -48 -31 -66.5t-46 -18.5q-15 0 -32.5 8t-34.5 17.5t-33 17.5t-29 8q-18 0 -30.5 -12t-23.5 -46zM93 504h32v-120q9 22 25 45.5t40 43t56 31.5t73 12q50 0 88.5 -16
t65 -45.5t40.5 -70t14 -89.5v-295h-32v290q0 88 -46 142t-134 54q-40 0 -74.5 -15.5t-60 -42.5t-40.5 -64t-15 -80v-284h-32v504z" />
    <glyph glyph-name="ograve" unicode="&#xf2;" horiz-adv-x="636" 
d="M202 703l39 20l93 -128h-25zM319 18q50 0 91.5 18.5t71.5 50.5t46.5 74t16.5 90v2q0 48 -17 90t-47.5 74t-72.5 50.5t-91 18.5q-50 0 -91.5 -18.5t-71 -50.5t-46 -74t-16.5 -90v-2q0 -48 17 -90t47.5 -74t72 -50.5t90.5 -18.5zM318 -12q-58 0 -106 21t-82.5 57
t-53.5 83.5t-19 100.5v2q0 53 19 101t53.5 84t83 57.5t106.5 21.5t105.5 -21t82 -57t53.5 -83.5t19 -100.5v-2q0 -53 -19 -101t-53.5 -84t-82.5 -57.5t-106 -21.5z" />
    <glyph glyph-name="oacute" unicode="&#xf3;" horiz-adv-x="636" 
d="M396 723l39 -20l-107 -108h-25zM319 18q50 0 91.5 18.5t71.5 50.5t46.5 74t16.5 90v2q0 48 -17 90t-47.5 74t-72.5 50.5t-91 18.5q-50 0 -91.5 -18.5t-71 -50.5t-46 -74t-16.5 -90v-2q0 -48 17 -90t47.5 -74t72 -50.5t90.5 -18.5zM318 -12q-58 0 -106 21t-82.5 57
t-53.5 83.5t-19 100.5v2q0 53 19 101t53.5 84t83 57.5t106.5 21.5t105.5 -21t82 -57t53.5 -83.5t19 -100.5v-2q0 -53 -19 -101t-53.5 -84t-82.5 -57.5t-106 -21.5z" />
    <glyph glyph-name="ocircumflex" unicode="&#xf4;" horiz-adv-x="636" 
d="M306 717h24l103 -122h-29l-86 85l-87 -85h-28zM319 18q50 0 91.5 18.5t71.5 50.5t46.5 74t16.5 90v2q0 48 -17 90t-47.5 74t-72.5 50.5t-91 18.5q-50 0 -91.5 -18.5t-71 -50.5t-46 -74t-16.5 -90v-2q0 -48 17 -90t47.5 -74t72 -50.5t90.5 -18.5zM318 -12q-58 0 -106 21
t-82.5 57t-53.5 83.5t-19 100.5v2q0 53 19 101t53.5 84t83 57.5t106.5 21.5t105.5 -21t82 -57t53.5 -83.5t19 -100.5v-2q0 -53 -19 -101t-53.5 -84t-82.5 -57.5t-106 -21.5z" />
    <glyph glyph-name="otilde" unicode="&#xf5;" horiz-adv-x="636" 
d="M177 600q11 48 31 67t46 19q15 0 32 -8t34.5 -18t33.5 -18t29 -8q18 0 30.5 12.5t23.5 45.5l22 -5q-11 -48 -31 -66.5t-46 -18.5q-15 0 -32.5 8t-34.5 17.5t-33 17.5t-29 8q-18 0 -30.5 -12t-23.5 -46zM319 18q50 0 91.5 18.5t71.5 50.5t46.5 74t16.5 90v2q0 48 -17 90
t-47.5 74t-72.5 50.5t-91 18.5q-50 0 -91.5 -18.5t-71 -50.5t-46 -74t-16.5 -90v-2q0 -48 17 -90t47.5 -74t72 -50.5t90.5 -18.5zM318 -12q-58 0 -106 21t-82.5 57t-53.5 83.5t-19 100.5v2q0 53 19 101t53.5 84t83 57.5t106.5 21.5t105.5 -21t82 -57t53.5 -83.5t19 -100.5
v-2q0 -53 -19 -101t-53.5 -84t-82.5 -57.5t-106 -21.5z" />
    <glyph glyph-name="odieresis" unicode="&#xf6;" horiz-adv-x="636" 
d="M219 670h50v-64h-50v64zM367 670h50v-64h-50v64zM319 18q50 0 91.5 18.5t71.5 50.5t46.5 74t16.5 90v2q0 48 -17 90t-47.5 74t-72.5 50.5t-91 18.5q-50 0 -91.5 -18.5t-71 -50.5t-46 -74t-16.5 -90v-2q0 -48 17 -90t47.5 -74t72 -50.5t90.5 -18.5zM318 -12q-58 0 -106 21
t-82.5 57t-53.5 83.5t-19 100.5v2q0 53 19 101t53.5 84t83 57.5t106.5 21.5t105.5 -21t82 -57t53.5 -83.5t19 -100.5v-2q0 -53 -19 -101t-53.5 -84t-82.5 -57.5t-106 -21.5z" />
    <glyph glyph-name="oslash" unicode="&#xf8;" horiz-adv-x="636" 
d="M319 18q50 0 91.5 18.5t71.5 50.5t46.5 74t16.5 90v2q0 45 -15.5 85t-42.5 71l-320 -334q30 -26 68.5 -41.5t83.5 -15.5zM469 428q-29 27 -68 42.5t-84 15.5q-50 0 -91.5 -18.5t-71 -50.5t-46 -74t-16.5 -90v-2q0 -45 15 -85t42 -72zM318 -12q-52 0 -95.5 17t-76.5 46
l-54 -56h-38l72 75q-32 35 -50.5 82t-18.5 98v2q0 53 19 101t53.5 84t83 57.5t106.5 21.5q51 0 94.5 -17t77.5 -47l61 65h38l-80 -83q33 -36 51 -82t18 -98v-2q0 -53 -19 -101t-53.5 -84t-82.5 -57.5t-106 -21.5z" />
    <glyph glyph-name="ugrave" unicode="&#xf9;" horiz-adv-x="610" 
d="M205 701l39 20l93 -128h-25zM291 -12q-50 0 -88.5 16t-65 45.5t-40.5 70t-14 89.5v295h32v-290q0 -88 46 -142t134 -54q40 0 74.5 15.5t60 42.5t40.5 64t15 80v284h32v-504h-32v120q-9 -23 -25 -46t-40 -42.5t-56.5 -31.5t-72.5 -12z" />
    <glyph glyph-name="uacute" unicode="&#xfa;" horiz-adv-x="610" 
d="M361 721l39 -20l-107 -108h-25zM291 -12q-50 0 -88.5 16t-65 45.5t-40.5 70t-14 89.5v295h32v-290q0 -88 46 -142t134 -54q40 0 74.5 15.5t60 42.5t40.5 64t15 80v284h32v-504h-32v120q-9 -23 -25 -46t-40 -42.5t-56.5 -31.5t-72.5 -12z" />
    <glyph glyph-name="ucircumflex" unicode="&#xfb;" horiz-adv-x="610" 
d="M291 717h24l103 -122h-29l-86 85l-87 -85h-28zM291 -12q-50 0 -88.5 16t-65 45.5t-40.5 70t-14 89.5v295h32v-290q0 -88 46 -142t134 -54q40 0 74.5 15.5t60 42.5t40.5 64t15 80v284h32v-504h-32v120q-9 -23 -25 -46t-40 -42.5t-56.5 -31.5t-72.5 -12z" />
    <glyph glyph-name="udieresis" unicode="&#xfc;" horiz-adv-x="610" 
d="M204 667h50v-64h-50v64zM352 667h50v-64h-50v64zM291 -12q-50 0 -88.5 16t-65 45.5t-40.5 70t-14 89.5v295h32v-290q0 -88 46 -142t134 -54q40 0 74.5 15.5t60 42.5t40.5 64t15 80v284h32v-504h-32v120q-9 -23 -25 -46t-40 -42.5t-56.5 -31.5t-72.5 -12z" />
    <glyph glyph-name="yacute" unicode="&#xfd;" horiz-adv-x="577" 
d="M382 721l39 -20l-107 -108h-25zM145 -163q-28 0 -52.5 7t-44.5 18l13 27q18 -10 39.5 -16t45.5 -6q21 0 38.5 6t33 21t31.5 41t34 66l-242 503h36l222 -469l203 469h34l-227 -517q-20 -45 -38.5 -74t-38 -46t-41 -23.5t-46.5 -6.5z" />
    <glyph glyph-name="thorn" unicode="&#xfe;" horiz-adv-x="657" 
d="M345 19q48 0 88 17t69 48t45 73t16 93v2q0 50 -16.5 92.5t-45.5 74t-69 49t-87 17.5t-87.5 -18t-70.5 -49.5t-47 -73.5t-17 -91v-2q0 -49 17.5 -91t47.5 -73.5t70.5 -49.5t86.5 -18zM93 730h32v-365q13 31 34 59t49.5 48t63.5 32t76 12q51 0 96.5 -19.5t79 -54.5
t53.5 -83t20 -106v-2q0 -57 -20 -105.5t-53.5 -83.5t-79 -54.5t-96.5 -19.5q-42 0 -77 11.5t-63.5 32t-49 47.5t-33.5 58v-297h-32v890z" />
    <glyph glyph-name="ydieresis" unicode="&#xff;" horiz-adv-x="577" 
d="M193 667h50v-64h-50v64zM341 667h50v-64h-50v64zM145 -163q-28 0 -52.5 7t-44.5 18l13 27q18 -10 39.5 -16t45.5 -6q21 0 38.5 6t33 21t31.5 41t34 66l-242 503h36l222 -469l203 469h34l-227 -517q-20 -45 -38.5 -74t-38 -46t-41 -23.5t-46.5 -6.5z" />
    <glyph glyph-name="dotlessi" unicode="&#x131;" horiz-adv-x="231" 
d="M99 504h33v-504h-33v504z" />
    <glyph glyph-name="Lslash" unicode="&#x141;" horiz-adv-x="626" 
d="M132 327l-87 -29v32l87 28v342h33v-331l235 76v-31l-235 -77v-306h423v-31h-456v327z" />
    <glyph glyph-name="lslash" unicode="&#x142;" horiz-adv-x="279" 
d="M123 347l-78 -25v32l78 25v351h33v-341l78 26v-32l-78 -26v-357h-33v347z" />
    <glyph glyph-name="OE" unicode="&#x152;" horiz-adv-x="1160" 
d="M614 31v638h-170q-75 0 -137 -24.5t-106.5 -67.5t-68.5 -101t-24 -124v-2q0 -66 24.5 -124.5t68.5 -101.5t106.5 -68t138.5 -25h168zM445 0q-83 0 -151 27t-117.5 74t-76.5 110.5t-27 137.5v2q0 74 27 137.5t76.5 110.5t117.5 74t151 27h647v-31h-444v-301h400v-31h-400
v-306h449v-31h-652z" />
    <glyph glyph-name="oe" unicode="&#x153;" horiz-adv-x="1068" 
d="M319 18q50 0 91.5 18.5t71.5 50.5t46.5 74t16.5 90v2q0 48 -17 90t-47.5 74t-72.5 50.5t-91 18.5q-50 0 -91.5 -18.5t-71 -50.5t-46 -74t-16.5 -90v-2q0 -48 17 -90t47.5 -74t72 -50.5t90.5 -18.5zM980 269q-2 41 -15.5 80t-38 69.5t-61 49t-83.5 18.5q-43 0 -79.5 -16.5
t-63.5 -45.5t-43 -69t-19 -86h403zM317 -12q-57 0 -105 21t-82.5 57t-53.5 83.5t-19 100.5v2q0 53 19 101t53.5 84t82.5 57.5t106 21.5q44 0 83 -13t70.5 -36t54 -55.5t34.5 -71.5q11 40 32 72.5t50.5 55.5t65 35.5t76.5 12.5q57 0 100 -22.5t72.5 -59.5t44 -84.5
t14.5 -98.5v-11h-438q2 -51 20.5 -92t47.5 -70t67.5 -44.5t80.5 -15.5q63 0 108 25t75 63l23 -20q-34 -42 -83.5 -70t-123.5 -28q-40 0 -76.5 12t-67.5 34.5t-53.5 56t-34.5 75.5q-12 -39 -34.5 -71.5t-54 -56.5t-70.5 -37t-84 -13z" />
    <glyph glyph-name="Scaron" unicode="&#x160;" horiz-adv-x="641" 
d="M213 887h29l86 -85l87 85h28l-103 -122h-24zM338 -10q-82 0 -150.5 28.5t-128.5 83.5l23 25q56 -53 118.5 -79.5t139.5 -26.5q45 0 82 11.5t63.5 32.5t40.5 49t14 61v2q0 31 -10 55t-34.5 43t-66.5 34.5t-105 28.5q-64 13 -109.5 30t-74 39.5t-41.5 52t-13 67.5v2
q0 37 17 70t47 58t71.5 39t91.5 14q72 0 130 -21.5t108 -60.5l-21 -27q-98 78 -219 78q-43 0 -78.5 -12t-60.5 -32.5t-38.5 -47t-13.5 -55.5v-2q0 -30 10 -54t34.5 -43.5t66.5 -35t106 -28.5q65 -13 110.5 -30.5t73.5 -40.5t40.5 -52t12.5 -66v-2q0 -41 -17 -75t-47.5 -59.5
t-74 -39.5t-97.5 -14z" />
    <glyph glyph-name="scaron" unicode="&#x161;" horiz-adv-x="493" 
d="M132 717h29l86 -85l87 85h28l-103 -122h-24zM251 -9q-54 0 -108.5 19.5t-96.5 54.5l19 25q42 -33 90.5 -51t97.5 -18q30 0 56.5 7.5t46 21.5t30.5 33.5t11 42.5v2q0 27 -13 45t-34.5 30.5t-49 21.5t-56.5 17q-35 10 -67 21t-56 26t-38 36.5t-14 53.5v2q0 28 12.5 52
t35 42t54 28t70.5 10q44 0 90.5 -14.5t86.5 -41.5l-18 -27q-36 26 -78 39.5t-82 13.5q-63 0 -100.5 -28.5t-37.5 -70.5v-2q0 -24 12.5 -40.5t33.5 -29t48.5 -21.5t58.5 -18q34 -9 66 -20t56 -27t38.5 -39t14.5 -56v-2q0 -31 -14 -56.5t-38 -43.5t-56.5 -28t-70.5 -10z" />
    <glyph glyph-name="Ydieresis" unicode="&#x178;" horiz-adv-x="681" 
d="M241 832h50v-64h-50v64zM389 832h50v-64h-50v64zM324 287l-298 413h42l274 -383l272 383h41l-297 -413v-287h-34v287z" />
    <glyph glyph-name="Zcaron" unicode="&#x17d;" horiz-adv-x="682" 
d="M228 887h29l86 -85l87 85h28l-103 -122h-24zM67 19l496 650h-479v31h527v-19l-496 -650h494v-31h-542v19z" />
    <glyph glyph-name="zcaron" unicode="&#x17e;" horiz-adv-x="514" 
d="M150 717h29l86 -85l87 85h28l-103 -122h-24zM45 18l376 457h-363v29h410v-18l-375 -457h377v-29h-425v18z" />
    <glyph glyph-name="florin" unicode="&#x192;" horiz-adv-x="481" 
d="M73 -4q-16 0 -24.5 1t-18.5 3v29q10 -2 18.5 -3t22.5 -1q35 0 58.5 22.5t34.5 80.5l49 266h-110v30h116l26 140q14 76 49 108t89 32q18 0 32.5 -2t31.5 -7v-30q-35 9 -61 9q-43 0 -69.5 -25.5t-38.5 -91.5l-25 -133h156v-30h-162l-50 -271q-14 -73 -45 -100t-79 -27z" />
    <glyph glyph-name="circumflex" unicode="&#x2c6;" 
d="M238 717h24l103 -122h-29l-86 85l-87 -85h-28z" />
    <glyph glyph-name="caron" unicode="&#x2c7;" 
d="M135 717h29l86 -85l87 85h28l-103 -122h-24z" />
    <glyph glyph-name="breve" unicode="&#x2d8;" 
d="M250 594q-57 0 -90 34t-38 89h25q8 -37 33 -64.5t70 -27.5q46 0 70.5 27.5t32.5 64.5h25q-5 -55 -38 -89t-90 -34z" />
    <glyph glyph-name="dotaccent" unicode="&#x2d9;" 
d="M226 672h49v-66h-49v66z" />
    <glyph glyph-name="ring" unicode="&#x2da;" 
d="M250 616q29 0 50.5 20.5t21.5 49.5v2q0 29 -21.5 49.5t-50.5 20.5t-50.5 -20.5t-21.5 -49.5v-2q0 -29 21.5 -49.5t50.5 -20.5zM250 594q-19 0 -36.5 7.5t-31 20t-21.5 29t-8 35.5v2q0 19 8 35.5t21.5 29t31 20t36.5 7.5t36.5 -7.5t31 -20t21.5 -29t8 -35.5v-2
q0 -19 -8 -35.5t-21.5 -29t-31 -20t-36.5 -7.5z" />
    <glyph glyph-name="ogonek" unicode="&#x2db;" 
d="M356 -161q-81 -2 -121.5 28t-40.5 80q0 17 4 33t10 30h26q-4 -15 -5.5 -30.5t-1.5 -26.5q0 -43 31.5 -65.5t97.5 -26.5v-22z" />
    <glyph glyph-name="tilde" unicode="&#x2dc;" 
d="M109 600q11 48 31 67t46 19q15 0 32 -8t34.5 -18t33.5 -18t29 -8q18 0 30.5 12.5t23.5 45.5l22 -5q-11 -48 -31 -66.5t-46 -18.5q-15 0 -32.5 8t-34.5 17.5t-33 17.5t-29 8q-18 0 -30.5 -12t-23.5 -46z" />
    <glyph glyph-name="hungarumlaut" unicode="&#x2dd;" 
d="M211 723l37 -19l-105 -109h-25zM344 723l37 -19l-104 -109h-26z" />
    <glyph glyph-name="Omega" unicode="&#x3a9;" horiz-adv-x="680" 
d="M126 475h-77v29h77v63q0 88 43 129q37 37 99 37q23 0 40 -3.5t33 -9.5v-31q-33 13 -73 13q-53 0 -81.5 -33t-28.5 -105v-60h181v-29h-181v-475h-32v475zM466 475h-77v29h77v63q0 87 42 129q39 37 100 37q23 0 39.5 -3.5t33.5 -9.5v-31q-33 13 -73 13q-53 0 -81.5 -33
t-28.5 -105v-60h181v-29h-181v-475h-32v475z" />
    <glyph glyph-name="Omega" unicode="&#x2126;" horiz-adv-x="680" 
d="M126 475h-77v29h77v63q0 88 43 129q37 37 99 37q23 0 40 -3.5t33 -9.5v-31q-33 13 -73 13q-53 0 -81.5 -33t-28.5 -105v-60h181v-29h-181v-475h-32v475zM466 475h-77v29h77v63q0 87 42 129q39 37 100 37q23 0 39.5 -3.5t33.5 -9.5v-31q-33 13 -73 13q-53 0 -81.5 -33
t-28.5 -105v-60h181v-29h-181v-475h-32v475z" />
    <glyph glyph-name="pi" unicode="&#x3c0;" horiz-adv-x="830" 
d="M434 331q53 0 84.5 23t31.5 65v2q0 43 -30.5 65t-82.5 22h-104v-177h101zM304 535h135q64 0 102 -29t38 -83v-2q0 -29 -11.5 -51t-31 -36.5t-46 -22t-56.5 -7.5h-101v-135h-29v366zM415 9q71 0 133 27t107.5 73.5t72 108t26.5 131.5v2q0 70 -26.5 132t-72 108t-107.5 73
t-133 27t-133 -27t-108 -73.5t-72 -108t-26 -131.5v-2q0 -70 26 -132t72 -108t108 -73t133 -27zM415 -12q-76 0 -142 28.5t-115 77.5t-77 114.5t-28 140.5v2q0 74 28.5 140t77.5 115t115 77.5t141 28.5q76 0 142 -28.5t115 -77.5t77 -114.5t28 -140.5v-2q0 -74 -28.5 -140
t-77.5 -115t-115 -77.5t-141 -28.5z" />
    <glyph glyph-name="endash" unicode="&#x2013;" horiz-adv-x="534" 
d="M70 313h394v-32h-394v32z" />
    <glyph glyph-name="emdash" unicode="&#x2014;" horiz-adv-x="896" 
d="M70 313h756v-32h-756v32z" />
    <glyph glyph-name="quoteleft" unicode="&#x2018;" horiz-adv-x="190" 
d="M69 604q0 45 13 66.5t43 33.5l9 -18q-23 -11 -31.5 -28.5t-6.5 -45.5h21v-65h-48v57z" />
    <glyph glyph-name="quoteright" unicode="&#x2019;" horiz-adv-x="190" 
d="M57 561q23 11 31.5 28.5t6.5 45.5h-22v65h48v-57q0 -45 -13 -66.5t-42 -33.5z" />
    <glyph glyph-name="quotesinglbase" unicode="&#x201a;" horiz-adv-x="190" 
d="M55 -74q23 11 31.5 28.5t6.5 45.5h-22v65h48v-57q0 -45 -13 -66.5t-42 -32.5z" />
    <glyph glyph-name="quotedblleft" unicode="&#x201c;" horiz-adv-x="316" 
d="M69 604q0 45 13 66.5t43 33.5l9 -18q-23 -11 -31.5 -28.5t-6.5 -45.5h21v-65h-48v57zM195 604q0 45 13 66.5t43 33.5l9 -18q-23 -11 -31.5 -28.5t-6.5 -45.5h21v-65h-48v57z" />
    <glyph glyph-name="quotedblright" unicode="&#x201d;" horiz-adv-x="316" 
d="M57 561q23 11 31.5 28.5t6.5 45.5h-22v65h48v-57q0 -45 -13 -66.5t-42 -33.5zM183 561q23 11 31.5 28.5t6.5 45.5h-22v65h48v-57q0 -45 -13 -66.5t-42 -33.5z" />
    <glyph glyph-name="quotedblbase" unicode="&#x201e;" horiz-adv-x="316" 
d="M55 -74q23 11 31.5 28.5t6.5 45.5h-22v65h48v-57q0 -45 -13 -66.5t-42 -32.5zM181 -74q23 11 31.5 28.5t6.5 45.5h-22v65h48v-57q0 -45 -13 -66.5t-42 -32.5z" />
    <glyph glyph-name="dagger" unicode="&#x2020;" horiz-adv-x="397" 
d="M188 531l-125 -7v31l125 -6l-6 151h33l-6 -151l125 6v-31l-125 7l5 -293h-32z" />
    <glyph glyph-name="daggerdbl" unicode="&#x2021;" horiz-adv-x="405" 
d="M192 151l-125 -6v31l125 -7l-5 181l5 181l-125 -7v31l125 -6l-6 151h33l-6 -151l125 6v-31l-125 7l5 -181l-5 -181l125 7v-31l-125 6l6 -151h-33z" />
    <glyph glyph-name="bullet" unicode="&#x2022;" horiz-adv-x="446" 
d="M224 240q-23 0 -44 9t-36.5 24t-24.5 35.5t-9 43.5v2q0 23 9 43t25 35t36.5 24t43.5 9q22 0 42.5 -9t36.5 -24t25 -35t9 -43v-2q0 -23 -9 -43.5t-24.5 -35.5t-36 -24t-43.5 -9z" />
    <glyph glyph-name="ellipsis" unicode="&#x2026;" horiz-adv-x="562" 
d="M71 64h47v-64h-47v64zM258 64h47v-64h-47v64zM444 64h47v-64h-47v64z" />
    <glyph glyph-name="perthousand" unicode="&#x2030;" horiz-adv-x="1179" 
d="M598 21q27 0 49.5 12t38 32t24 47.5t8.5 57.5v2q0 30 -9 57.5t-25 48.5t-38.5 33t-49.5 12t-49 -12t-38 -32.5t-24.5 -47.5t-8.5 -57v-2q0 -31 9 -58.5t25.5 -48t38.5 -32.5t49 -12zM971 21q27 0 49.5 12t38 32t24 47.5t8.5 57.5v2q0 30 -9 57.5t-25 48.5t-38.5 33
t-49.5 12t-49 -12t-38 -32.5t-24.5 -47.5t-8.5 -57v-2q0 -31 9 -58.5t25.5 -48t38.5 -32.5t49 -12zM210 377q27 0 49.5 12t38 32.5t24 47.5t8.5 57v2q0 30 -9 57.5t-25 48.5t-38.5 33t-49.5 12t-49 -12t-38 -32.5t-24.5 -47.5t-8.5 -57v-2q0 -31 9 -58.5t25.5 -48
t38.5 -32.5t49 -12zM597 -8q-35 0 -63.5 14.5t-49 39t-31.5 57t-11 67.5v2q0 35 11 67.5t31.5 57t49 39.5t63.5 15t63.5 -14.5t49 -39.5t31.5 -57t11 -67v-2q0 -36 -11 -68t-31.5 -57t-49 -39.5t-63.5 -14.5zM970 -8q-35 0 -63.5 14.5t-49 39t-31.5 57t-11 67.5v2
q0 35 11 67.5t31.5 57t49 39.5t63.5 15t63.5 -14.5t49 -39.5t31.5 -57t11 -67v-2q0 -36 -11 -68t-31.5 -57t-49 -39.5t-63.5 -14.5zM643 700h34l-514 -700h-34zM209 349q-35 0 -63.5 14.5t-49 39t-31.5 57t-11 67.5v2q0 35 11 67.5t31.5 57t49 39.5t63.5 15t63.5 -14.5
t49 -39.5t31.5 -57t11 -67v-2q0 -36 -11 -68t-31.5 -57t-49 -39.5t-63.5 -14.5z" />
    <glyph glyph-name="guilsinglleft" unicode="&#x2039;" horiz-adv-x="300" 
d="M47 252v6l169 207l22 -16l-153 -194l153 -194l-22 -16z" />
    <glyph glyph-name="guilsinglright" unicode="&#x203a;" horiz-adv-x="300" 
d="M61 61l153 194l-153 194l22 16l170 -207v-6l-170 -207z" />
    <glyph glyph-name="fraction" unicode="&#x2044;" horiz-adv-x="406" 
d="M415 759h36l-469 -857h-36z" />
    <glyph glyph-name="fraction" unicode="&#x2215;" horiz-adv-x="406" 
d="M415 759h36l-469 -857h-36z" />
    <glyph glyph-name="trademark" unicode="&#x2122;" horiz-adv-x="670" 
d="M127 677h-106v23h235v-23h-106v-285h-23v285zM325 700h23l126 -185l126 185h23v-308h-23v266l-125 -181h-3l-124 181v-266h-23v308z" />
    <glyph glyph-name="radical" unicode="&#x221a;" horiz-adv-x="911" 
d="M779 730h32v-730h-32v730zM126 475h-77v29h77v63q0 88 43 129q37 37 99 37q23 0 40 -3.5t33 -9.5v-31q-33 13 -73 13q-53 0 -81.5 -33t-28.5 -105v-60h181v-29h-181v-475h-32v475zM466 475h-77v29h77v63q0 87 42 129q39 37 100 37q23 0 39.5 -3.5t33.5 -9.5v-31
q-33 13 -73 13q-53 0 -81.5 -33t-28.5 -105v-60h181v-29h-181v-475h-32v475z" />
    <glyph glyph-name="approxequal" unicode="&#x2248;" horiz-adv-x="911" 
d="M779 504h32v-504h-32v504zM126 475h-77v29h77v63q0 88 43 129q37 37 99 37q23 0 40 -3.5t33 -9.5v-31q-33 13 -73 13q-53 0 -81.5 -33t-28.5 -105v-60h181v-29h-181v-475h-32v475zM466 475h-77v29h77v63q0 87 42 129q39 37 100 37q23 0 39.5 -3.5t33.5 -9.5v-31
q-33 13 -73 13q-53 0 -81.5 -33t-28.5 -105v-60h181v-29h-181v-475h-32v475zM774 704h43v-61h-43v61z" />
    <glyph glyph-name="NUL" horiz-adv-x="0" 
 />
    <glyph glyph-name="apple" horiz-adv-x="967" 
d="M417 64q0 -7 -2.5 -12t-9.5 -5q-6 0 -9 5t-3 12q0 16 12 16t12 -16zM352 64h-3q-8 0 -8 8q0 6 7 6q4 0 4 -4v-10zM553 79q4 0 0 -9q-5 9 0 9zM393 182q0 -7 -4 -7h-5q-11 0 -18.5 10t-7.5 22q0 17 14 17h6q3 -1 3.5 -1.5t2.5 -5.5zM716 187q0 -13 -11 -13q-9 0 -17 11.5
t-8 26.5q0 14 11 14q9 0 17 -11.5t8 -27.5zM275 200q-8 0 -11.5 5t-3.5 10q0 9 8 9t9 -5l3 -19h-5zM381 384q-13 0 -13 11t13 11h11v-22h-11zM684 535q0 -13 -11 -13q-9 0 -17 11.5t-8 26.5q0 14 11 14q9 0 17 -11.5t8 -27.5zM272 553q-3 -4 -7 -4t-4 2q0 3 4 3q5 0 7 -1z
M566 553q-3 -4 -7 -4t-4 2q0 3 4 3q5 0 7 -1zM171 548q-8 0 -11.5 5t-3.5 10q0 9 8 9t9 -5l3 -19h-5zM441 -88q0 13 -11 13t-11 -12q0 -13 11 -13t11 12zM800 -88q0 13 -11 13t-11 -12q0 -13 11 -13t11 12zM559 -80l-5 -12h10zM394 -83q0 8 -11 7v-13q11 0 11 6zM525 -82
q0 8 -11 6v-12q11 -1 11 6zM606 -83q0 8 -11 7v-13q11 0 11 6zM309 48q-2 0 -3 1q-3 1 -3 5v20q0 2 3 4q1 1 3 1v2h-18v-2q1 0 3 -1q3 -3 3 -4v-9q-2 0 -4 2l-8 8q-3 1 -1 3q1 1 2 1v2h-14v-2q1 0 3 -1t2.5 -1.5t2.5 -1.5l10 -9l-13 -13q-1 -1 -2 -1.5t-2 -1.5q-2 -1 -3 -2
v-2h17v2q-2 0 -3 1t1 4l8 8q2 2 4 2v-9q0 -2 -3 -5q-2 -1 -3 -1v-2h18v2zM364 48q-2 0 -3 1q-2 2 -2 4v20q0 3 2 5q1 1 3 1v2h-18q-13 0 -13 -9q0 -5 9 -9l-7 -10q-2 -2 -3.5 -2.5t-2.5 -1.5l-2 -1v-2h11l7 12q3 4 7 4v-9q0 -2 -1 -2.5t-2 -1.5t-2 -1v-2h17v2zM425 64
q0 8 -5 13t-15 5t-15 -5t-5 -13t5 -13.5t15 -5.5t15 5.5t5 13.5zM480 81h-15v-2q1 0 2 -1t-1 -4l-6 -9l-6 9q-2 2 0 4q1 1 3 1v2h-15v-2q1 0 3 -1t5 -4l8 -12v-8q0 -2 -3 -5q-1 -1 -2 -1v-2h17v2q-2 0 -3 1q-2 2 -2 5v8l8 12q1 2 2.5 2.5t2.5 1.5t2 1v2zM568 81v-2q1 0 2 -1
t0 -4l-9 -19l-5 10l4 8q1 2 2 2.5t2 1.5l2 2v2h-26l1 -2q1 0 2 -1l2 -2l3 -3l3 -5l-7 -13l-8 18q-2 3 0 5q1 1 2 1v2h-13v-2q1 0 2 -1q3 -3 4 -5l13 -27h1q1 -1 1 0l8 16l9 -16h1l12 27q1 2 2.5 3t2.5 2t2 1v2h-15zM633 48q-2 -1 -3 0q-2 0 -2 5v21q0 3 2 5h3v2h-29l-2 -10
l2 -1q0 2 2 4q2 4 7 4h4q4 0 4 -3v-10h-4q-3 0 -5 2q-1 1 -1 3h-2v-13h2q0 1 1 3q3 3 5 3h4v-11q0 -3 -4 -3h-4q-4 0 -8 4q-2 2 -2 5l-2 -1l2 -11h30v2zM694 48q-2 0 -3 1q-3 1 -3 4v20q0 2 3 4q1 1 3 2v2h-10l-24 -26v18q0 3 3 5q1 1 3 1v2h-15v-2q1 0 3 -1q3 -3 3 -5v-28
h3l25 28v-20q0 -1 -3 -4q-1 -1 -2 -1v-2h14v2zM827 133h-685v-6h685v6zM306 174q-2 0 -4 1t-3.5 2t-2.5 5l-7 35q-1 5 3 7q2 1 4 1l-1 3h-27q-20 0 -20 -15q0 -6 5.5 -10t13.5 -5l-9 -16q-2 -4 -4.5 -5t-4.5 -2q-3 -1 -5 -1l1 -3h19l12 23q1 3 5 3l3 -15q1 -5 -3 -7
q-2 -1 -4 -1l1 -3h29zM413 175q-2 -1 -4 0q-5 2 -6 9l-8 31q-3 9 8 10l-1 3h-30q-9 0 -17 -5.5t-8 -16.5q0 -16 11 -25.5t24 -9.5h32zM522 174q-1 0 -3 1q-5 2 -6 9l-7 32q-1 6 3 8q2 1 5 1l-1 3h-14l-29 -42l-5 30q-1 6 3 8q2 1 4 1l-1 3h-21l1 -3q2 0 4 -1q3 -2 5 -8
l8 -45l3 -1l30 44l6 -30q1 -7 -2 -9q-2 -1 -4 -1l1 -3h21zM620 228h-29l1 -3q2 0 4 -1q5 -2 6 -8l5 -21q2 -10 1 -15t-12 -5q-8 0 -13 6.5t-7 15.5l-4 19q-1 7 3 9q2 1 4 0v3h-24l1 -3q2 0 5 -1q5 -2 6 -8l4 -19q2 -8 8 -17.5t20 -9.5q17 0 19 8t0 16l-5 22q-2 4 -0.5 6
t3.5 3t5 0zM822 174q-2 0 -4 1t-3.5 2t-2.5 5l-7 35q-1 5 3 7q2 1 4 1l-1 3h-45v-10v-7h4q-1 3 1 6q2 7 12 7h4q5 0 6 -6l3 -16h-4q-5 0 -9 4q-2 2 -3 5h-3l5 -23h3q0 2 1 5q2 6 7 6h4l3 -17q1 -5 -3 -7q-2 -1 -4 -1l1 -3h29zM203 217q-3 5 -6.5 9t-11.5 4q-15 0 -14 -23
q-3 10 -8 16.5t-13 6.5q-5 0 -8.5 -3t-3.5 -9l3 -1q0 6 8 6q10 0 15.5 -10.5t8.5 -22.5q2 -7 1 -9.5t-3 -4.5t-4 -1l1 -4h28l-1 4q-2 -1 -4 0q-5 2 -6 9q-5 17 -5 25q0 13 9 13q5 0 7.5 -2.5l4.5 -4.5zM728 192q0 15 -11.5 26.5t-25.5 11.5q-7 0 -15 -5t-8 -17
q0 -16 11.5 -27t25.5 -11q7 0 15 5t8 17zM827 277h-685v-6h685v6zM283 341h-14v65h14v34h-141v-62h41v28h33v-20h-24v-24h24v-21h-33v28h-41v-61h141v33zM458 341h-14v65h14v34h-96q-22 0 -34.5 -11.5t-12.5 -28.5t12.5 -28.5t34.5 -11.5h30v-19h-15v-33h81v33zM648 440h-81
v-34h11l-15 -23l-15 23h10v34h-62v-34h12l37 -46v-19h-14v-33h81v33h-15v20l37 45h14v34zM827 440h-147v-62h36v28h11v-65h-14v-33h81v33h-14v65h11v-28h36v62zM827 481h-685v-6h685v6zM400 521q0 2 -3 5t-10 4q-4 3 -4.5 10.5t-2 16t-6 15t-16.5 6.5q-5 0 -9 -3.5t-4 -6.5
q0 -5 5 -5q4 0 4 6t5 6t6.5 -5t2.5 -12t3.5 -14.5t8.5 -13.5q-11 0 -14.5 -6.5t-8.5 -6.5t-5 4q0 2 1 2.5t1 2.5q0 5 -5 5t-5 -7q0 -5 5 -8.5t10 -3.5q13 0 15 6.5t10 6.5q3 -7 12 -7q4 0 4 3zM202 522q-2 0 -4 1t-3.5 2t-2.5 5l-7 35q-1 5 3 7q2 1 4 1l-1 3h-27
q-20 0 -20 -15q0 -6 5.5 -10t13.5 -5l-9 -16q-2 -4 -4.5 -5t-4.5 -2q-3 -1 -5 -1l1 -3h19l12 23q1 3 5 3l3 -15q1 -5 -3 -7q-2 -1 -4 -1l1 -3h29zM497 522q-2 0 -4 1t-3.5 2t-2.5 5l-7 35q-1 5 3 7q2 1 4 1l-1 3h-45v-10v-7h4q-1 3 1 6q2 7 12 7h4q5 0 6 -6l3 -16h-4
q-5 0 -9 4q-2 2 -3 5h-3l5 -23h3q0 2 1 5q2 6 7 6h4l3 -17q1 -5 -3 -7q-2 -1 -4 -1l1 -3h29zM820 522q-2 0 -4 1t-3.5 2t-2.5 5l-7 35q-1 5 3 7q2 1 4 1l-1 3h-28l1 -3q2 0 4 -1q4 -2 5 -7l3 -15h-24l-3 15q-1 5 3 7q2 1 4 1l-1 3h-29l1 -3q2 0 4 -1q5 -2 6 -7l7 -35
q1 -5 -3 -7q-2 -1 -4 -1l1 -3h29l-1 3q-2 0 -4 1t-3.5 2t-2.5 5l-3 16h24l3 -16q1 -5 -3 -7q-2 -1 -4 -1l1 -3h29zM295 537q0 12 -14 17q5 3 5 9q0 5 -5 10t-16 5q-13 0 -13 -11q0 -6 5 -6q4 0 4 3t-1.5 3.5t-1.5 2.5q0 5 7 5q10 0 10 -12q0 -4 -2 -6q-16 2 -16 -6
q0 -6 8 -6q6 0 11 5q6 -5 6 -15q0 -14 -12 -14t-12 9q0 3 3 3q1 0 2 -1t3 -1q4 0 4 5t-7 5q-9 0 -9 -10q0 -13 16 -13q13 0 19 5.5t6 13.5zM589 537q0 12 -14 17q5 3 5 9q0 5 -5 10t-16 5q-13 0 -13 -11q0 -6 5 -6q4 0 4 3t-1.5 3.5t-1.5 2.5q0 5 7 5q10 0 10 -12
q0 -4 -2 -6q-16 2 -16 -6q0 -6 8 -6q6 0 11 5q6 -5 6 -15q0 -14 -12 -14t-12 9q0 3 3 3q1 0 2 -1t3 -1q4 0 4 5t-7 5q-9 0 -9 -10q0 -13 16 -13q13 0 19 5.5t6 13.5zM696 540q0 15 -11.5 26.5t-25.5 11.5q-7 0 -15 -5t-8 -17q0 -16 11.5 -27t25.5 -11q7 0 15 5t8 17z
M827 624h-685v-6h685v6zM439 664q-2 -1 -3 0q-2 0 -2 5v21q0 3 2 5h3v2h-29l-2 -10l2 -1q0 2 2 4q2 4 7 4h4q4 0 4 -3v-10h-4q-3 0 -5 2q-1 1 -1 3h-2v-13h2q0 1 1 3q3 3 5 3h4v-11q0 -3 -4 -3h-4q-4 0 -8 4q-2 2 -2 5l-2 -1l2 -11h30v2zM504 664q-2 -1 -3 0q-3 0 -3 5v21
q0 3 3 5h3v2h-18v-1v-1h2q3 -3 3 -5v-9h-17v9q0 3 2 5h3v1v1h-17v-2h2q3 -3 3 -5v-21q0 -2 -1 -2.5t-2 -1.5t-2 -1v-2h17v2q-2 0 -3 1q-2 2 -2 4v10h17v-10q0 -5 -3 -5q-1 -1 -2 0v-2h18v2zM559 686v4q0 2 -0.5 4t-0.5 4q-2 -1 -17 -1t-18 1q0 -2 -0.5 -4t-0.5 -4v-4h2
q1 2 3 4q5 5 7 5q3 0 3 -3v-23q0 -5 -3 -5q-1 -1 -2 0v-2h17v2q-2 -1 -3 0q-2 0 -2 5v23q0 3 3 3t8 -5q2 -2 2 -4h2zM284 -101q0 -4 -4 -4t-4 4t4 4t4 -4zM716 -101q0 -4 -4 -4t-4 4t4 4t4 -4zM143 -105h-1l-11 23l-10 -23h-1l-12 34l6 1l7 -23l10 23h1l10 -23l7 22h6z
M199 -105h-1l-11 23l-10 -23h-1l-12 34l6 1l7 -23l10 23h1l10 -23l7 22h6zM255 -105h-1l-11 23l-10 -23h-1l-12 34l6 1l7 -23l10 23h1l10 -23l7 22h6zM323 -76h-12v-28h-6v28h-12v5h30v-5zM351 -90v-14h-6v14l-14 19l6 1l11 -15l9 14h7zM400 -82q0 -12 -17 -12v-10h-6v33
q14 2 18.5 -2t4.5 -9zM447 -87q0 -8 -4.5 -13t-12.5 -5t-12.5 5t-4.5 12q0 8 5 13t13 5q7 0 11.5 -5t4.5 -12zM491 -101q-6 -4 -13 -4q-8 0 -13 4.5t-5 12.5t5.5 13t13.5 5q6 0 12 -4l-2 -5q-4 4 -11 4q-12 0 -12 -13q0 -12 13 -12q2 0 6 2v7h-9v5h15v-15zM527 -104l-8 11
h-5v-11h-6v33q14 2 18.5 -1.5t4.5 -8.5q0 -7 -7 -10l10 -13h-7zM570 -104l-4 8h-14l-3 -8h-6l15 34h2l16 -34h-6zM612 -82q0 -12 -17 -12v-10h-6v33q14 2 18.5 -2t4.5 -9zM650 -104v15h-16v-15h-6v33h6v-13h16v13h6v-33h-6zM689 -90v-14h-6v14l-14 19l6 1l11 -15l9 14h7z
M757 -102q-3 -3 -10 -3q-18 0 -18 17q0 8 5 13t13 5q6 0 11 -3l-2 -5q-3 3 -9 3q-5 0 -8.5 -3.5t-3.5 -8.5q0 -13 13 -13q4 0 10 4zM806 -87q0 -8 -4.5 -13t-12.5 -5t-12.5 5t-4.5 12q0 8 5 13t13 5q7 0 11.5 -5t4.5 -12zM853 -104l-3 20l-10 -21h-2l-10 21l-3 -20h-6l6 34
h1l13 -26l13 26h1l6 -34h-6zM101 0v750h767v-750h-767z" />
  </font>
</defs>
</svg>
