<?xml version="1.0" standalone="no"?>
<!DOCTYPE svg PUBLIC "-//W3C//DTD SVG 1.1//EN" "http://www.w3.org/Graphics/SVG/1.1/DTD/svg11.dtd" >
<svg xmlns="http://www.w3.org/2000/svg" xmlns:xlink="http://www.w3.org/1999/xlink" version="1.1">
<metadata>
Created by FontForge 20161013 at Mon Oct 10 10:25:52 2005
 By ,,,
HTF Gotham  Copr. 2003 The Hoefler Type Foundry, Inc. Info: www.typography.com
</metadata>
<defs>
<font id="GothamUltra" horiz-adv-x="500" >
  <font-face 
    font-family="Gotham Ultra"
    font-weight="900"
    font-stretch="normal"
    units-per-em="1000"
    panose-1="2 0 6 3 4 0 0 2 0 4"
    ascent="800"
    descent="-200"
    x-height="546"
    cap-height="700"
    bbox="-75 -173 1324 932"
    underline-thickness="20"
    underline-position="-153"
    unicode-range="U+0020-FB02"
  />
<missing-glyph 
 />
    <glyph glyph-name="fi" unicode="fi" horiz-adv-x="725" 
d="M462 546h227v-546h-227v546zM76 371h-64v175h64q2 45 12.5 79t36.5 60q28 28 65.5 40t94.5 12q51 0 83.5 -4t55.5 -11v-142q-17 4 -34 6t-39 2q-53 0 -53 -44v-4h126v-169h-121v-371h-227v371zM458 730h235v-145h-235v145z" />
    <glyph glyph-name="fl" unicode="fl" horiz-adv-x="725" 
d="M462 730h227v-730h-227v730zM76 371h-64v175h64q2 45 12.5 79t36.5 60q28 28 65.5 40t94.5 12q51 0 83.5 -4t55.5 -11v-142q-17 4 -34 6t-39 2q-53 0 -53 -44v-4h126v-169h-121v-371h-227v371z" />
    <glyph glyph-name=".notdef" 
 />
    <glyph glyph-name=".null" horiz-adv-x="0" 
 />
    <glyph glyph-name="nonmarkingreturn" horiz-adv-x="254" 
 />
    <glyph glyph-name="space" unicode=" " horiz-adv-x="254" 
 />
    <glyph glyph-name="exclam" unicode="!" horiz-adv-x="324" 
d="M46 180h232v-180h-232v180zM35 550v150h254v-150l-70 -332h-114z" />
    <glyph glyph-name="quotedbl" unicode="&#x22;" horiz-adv-x="554" 
d="M38 700h239v-5l-144 -394h-122zM315 700h239v-5l-144 -394h-122z" />
    <glyph glyph-name="numbersign" unicode="#" horiz-adv-x="711" 
d="M408 306l16 93h-123l-16 -93h123zM104 120h-80v193h113l13 78h-95v193h128l20 116h157l-20 -116h109l20 116h157l-20 -116h81v-193h-114l-13 -78h96v-193h-129l-21 -120h-157l21 120h-109l-21 -120h-157z" />
    <glyph glyph-name="dollar" unicode="$" horiz-adv-x="686" 
d="M410 165q35 2 49.5 12t14.5 26v2q0 16 -13 25t-51 16v-81zM318 535q-37 -1 -52 -11.5t-15 -25.5v-2q0 -16 14 -25.5t53 -16.5v81zM310 1q-84 7 -162 33t-142 70l102 151q56 -36 108 -56t100 -27v83q-66 13 -116.5 30.5t-84.5 43.5t-51.5 61.5t-17.5 84.5v2q0 46 16.5 86
t50 69.5t84 47.5t117.5 21v57h104v-60q70 -7 127.5 -28t107.5 -53l-96 -152q-32 23 -70 38t-75 23v-82q63 -12 111.5 -29t82 -42.5t51 -62t17.5 -87.5v-2q0 -50 -18.5 -89t-52.5 -66.5t-82 -44.5t-107 -21v-98h-104v99z" />
    <glyph glyph-name="percent" unicode="%" horiz-adv-x="937" 
d="M721 116q20 0 36 18.5t16 50.5v2q0 32 -15.5 50.5t-36.5 18.5q-22 0 -37 -18.5t-15 -50.5v-2q0 -32 16 -50.5t36 -18.5zM216 444q20 0 36 18.5t16 50.5v2q0 32 -15.5 50.5t-36.5 18.5q-22 0 -37 -18.5t-15 -50.5v-2q0 -32 16 -50.5t36 -18.5zM721 -11q-43 0 -78 15.5
t-60 42.5t-39 62.5t-14 75.5v2q0 40 13.5 75.5t38 62.5t60 42.5t79.5 15.5t79.5 -15.5t60 -42.5t38 -62.5t13.5 -75.5v-2q0 -40 -14 -75.5t-39 -62.5t-60 -42.5t-78 -15.5zM677 700h151l-568 -700h-151zM216 317q-43 0 -78 15.5t-60 42.5t-39 62.5t-14 75.5v2
q0 40 13.5 75.5t38 62.5t60 42.5t79.5 15.5t79.5 -15.5t60 -42.5t38 -62.5t13.5 -75.5v-2q0 -40 -14 -75.5t-39 -62.5t-60 -42.5t-78 -15.5z" />
    <glyph glyph-name="ampersand" unicode="&#x26;" horiz-adv-x="700" 
d="M307 146q16 0 32.5 5.5t33.5 14.5l-97 99q-19 -14 -27 -29t-8 -32v-2q0 -26 18 -41t48 -15zM331 442q29 15 42 35.5t13 43.5v2q0 22 -11.5 34.5t-30.5 12.5q-20 0 -32 -14.5t-12 -38.5v-2q0 -18 8 -35.5t23 -37.5zM484 50q-93 -63 -211 -63q-57 0 -105 13.5t-83.5 39
t-55.5 63t-20 86.5v2q0 63 35 113.5t113 84.5q-23 34 -33 66t-10 64v2q0 40 16 75t45.5 61.5t71 42t93.5 15.5q51 0 91.5 -14t69 -38t43.5 -57.5t15 -72.5v-2q0 -60 -34 -105.5t-92 -75.5l63 -61q17 23 32.5 49t31.5 54l143 -67q-23 -42 -46 -78.5t-47 -68.5l86 -83
l-149 -109z" />
    <glyph glyph-name="quotesingle" unicode="'" horiz-adv-x="282" 
d="M38 700h244v-5l-144 -394h-127z" />
    <glyph glyph-name="parenleft" unicode="(" horiz-adv-x="445" 
d="M336 -141q-71 36 -128 77.5t-96.5 93t-60.5 114.5t-21 143t21 143t60.5 114.5t96.5 93t128 77.5l90 -134q-92 -63 -134 -132.5t-42 -161.5t42 -161.5t134 -132.5z" />
    <glyph glyph-name="parenright" unicode=")" horiz-adv-x="445" 
d="M19 -7q92 63 134 132.5t42 161.5t-42 161.5t-134 132.5l90 134q71 -36 128 -77.5t96.5 -93t60.5 -114.5t21 -143t-21 -143t-60.5 -114.5t-96.5 -93t-128 -77.5z" />
    <glyph glyph-name="asterisk" unicode="*" horiz-adv-x="420" 
d="M180 450l-108 -102l-67 113l143 43l-143 43l67 113l108 -102l-34 144h128l-34 -144l108 102l67 -113l-143 -43l143 -43l-67 -113l-108 102l34 -144h-128z" />
    <glyph glyph-name="plus" unicode="+" horiz-adv-x="640" 
d="M217 253h-156v198h156v164h206v-164h156v-198h-156v-164h-206v164z" />
    <glyph glyph-name="comma" unicode="," horiz-adv-x="282" 
d="M14 -85q49 6 75.5 28.5t26.5 60.5h-91v230h232v-183q0 -62 -17 -103t-47 -66t-71 -36.5t-90 -13.5z" />
    <glyph glyph-name="hyphen" unicode="-" horiz-adv-x="408" 
d="M30 408h348v-186h-348v186z" />
    <glyph glyph-name="hyphen" unicode="&#xad;" horiz-adv-x="408" 
d="M30 408h348v-186h-348v186z" />
    <glyph glyph-name="period" unicode="." horiz-adv-x="282" 
d="M25 230h232v-230h-232v230z" />
    <glyph glyph-name="slash" unicode="/" horiz-adv-x="540" 
d="M395 798h179l-443 -926h-179z" />
    <glyph glyph-name="zero" unicode="0" horiz-adv-x="730" 
d="M366 188q48 0 76 44t28 116v2q0 36 -7.5 66t-21.5 51t-33.5 33t-43.5 12q-48 0 -76 -44t-28 -116v-2q0 -36 7.5 -66t21.5 -51t33.5 -33t43.5 -12zM364 -15q-80 0 -142 29.5t-105.5 79.5t-66 116t-22.5 138v2q0 72 23 138.5t66.5 116.5t106 80t142.5 30q79 0 141.5 -29.5
t106 -79.5t66 -116t22.5 -138v-2q0 -72 -23 -138.5t-66.5 -116.5t-106.5 -80t-142 -30z" />
    <glyph glyph-name="one" unicode="1" horiz-adv-x="422" 
d="M148 500l-114 -25l-42 173l209 57h177v-705h-230v500z" />
    <glyph glyph-name="two" unicode="2" horiz-adv-x="625" 
d="M17 170l290 208q33 23 47 44t14 41q0 23 -16.5 37.5t-46.5 14.5t-60.5 -20t-74.5 -67l-154 131q30 37 61.5 66t68.5 48.5t80.5 29.5t98.5 10q60 0 110.5 -17t87 -47.5t57 -72.5t20.5 -92v-2q0 -40 -10 -71.5t-29 -57.5t-45 -48t-57 -42l-125 -80h273v-183h-590v170z" />
    <glyph glyph-name="three" unicode="3" horiz-adv-x="621" 
d="M321 -15q-109 0 -187 33t-136 93l139 143q39 -37 80 -56.5t85 -19.5q39 0 59.5 15.5t20.5 40.5v2q0 26 -22.5 41t-69.5 15h-99l-31 104l154 122h-260v182h538v-161l-157 -118q79 -21 126 -68.5t47 -130.5v-2q0 -57 -23 -100.5t-62.5 -73.5t-91.5 -45.5t-110 -15.5z" />
    <glyph glyph-name="four" unicode="4" horiz-adv-x="689" 
d="M371 283v186l-149 -186h149zM371 121h-337l-38 164l342 420h260v-419h84v-165h-84v-121h-227v121z" />
    <glyph glyph-name="five" unicode="5" horiz-adv-x="630" 
d="M301 -15q-102 0 -174.5 31t-130.5 84l129 150q45 -36 87.5 -56t85.5 -20q42 0 65 19t23 48v2q0 31 -22.5 49t-59.5 18q-32 0 -57 -12t-50 -32l-141 70l20 364h505v-185h-331l-5 -91q28 17 59.5 27.5t73.5 10.5q43 0 85 -14t75 -41.5t53.5 -69t20.5 -96.5v-2
q0 -61 -23.5 -108t-65 -79.5t-98.5 -49.5t-124 -17z" />
    <glyph glyph-name="six" unicode="6" horiz-adv-x="662" 
d="M333 153q35 0 55 23t20 55v2q0 32 -21 55t-56 23t-55 -22.5t-20 -54.5v-2q0 -32 21 -55.5t56 -23.5zM342 -15q-80 0 -133 22.5t-92 61.5q-40 40 -64.5 102.5t-24.5 156.5v2q0 82 21.5 152.5t64 122t107 81t150.5 29.5q75 0 134 -19t113 -57l-101 -154q-31 22 -64 36
t-72 14q-57 0 -86.5 -37t-36.5 -100q30 26 67.5 44t90.5 18q40 0 79 -14.5t69.5 -41.5t49 -66.5t18.5 -90.5v-2q0 -63 -23.5 -111.5t-63.5 -81.5t-92.5 -50t-110.5 -17z" />
    <glyph glyph-name="seven" unicode="7" horiz-adv-x="609" 
d="M343 507h-319v193h574v-176l-304 -524h-254z" />
    <glyph glyph-name="eight" unicode="8" horiz-adv-x="630" 
d="M315 149q41 0 61 22t20 48v2q0 29 -22 48.5t-59 19.5t-59 -19.5t-22 -48.5v-2q0 -26 20 -48t61 -22zM315 418q32 0 52.5 19.5t20.5 48.5v2q0 26 -20 46t-53 20t-53 -20t-20 -46v-2q0 -29 20.5 -48.5t52.5 -19.5zM315 -13q-68 0 -124 15t-96.5 42.5t-62.5 65.5t-22 83v2
q0 64 34.5 104.5t91.5 63.5q-20 10 -38.5 24t-32.5 33t-22.5 42.5t-8.5 52.5v2q0 43 20.5 79t57.5 62t89 40.5t114 14.5t114 -14.5t89 -40.5t57.5 -62t20.5 -79v-2q0 -29 -8.5 -52.5t-22.5 -42.5t-32.5 -33t-38.5 -24q27 -11 50 -26t40 -35.5t26.5 -47t9.5 -59.5v-2
q0 -46 -22 -84t-62.5 -65t-96.5 -42t-124 -15z" />
    <glyph glyph-name="nine" unicode="9" horiz-adv-x="662" 
d="M331 383q35 0 55.5 23t20.5 55v2q0 35 -21.5 59.5t-56.5 24.5t-55.5 -24t-20.5 -59v-2q0 -34 21.5 -56.5t56.5 -22.5zM293 -15q-81 0 -143.5 22t-115.5 60l101 151q70 -53 147 -53q57 0 87 34t36 99q-29 -29 -68 -47t-87 -18q-45 0 -85 15.5t-70 43.5t-47.5 68t-17.5 90
v2q0 63 22.5 111.5t62 82.5t92.5 51.5t114 17.5q82 0 135 -23t93 -63q38 -38 61.5 -101t23.5 -154v-2q0 -86 -22.5 -157.5t-66 -122.5t-107 -79t-145.5 -28z" />
    <glyph glyph-name="colon" unicode=":" horiz-adv-x="292" 
d="M30 230h232v-230h-232v230zM30 546h232v-230h-232v230z" />
    <glyph glyph-name="semicolon" unicode=";" horiz-adv-x="292" 
d="M19 -89q49 6 75.5 28.5t26.5 60.5h-91v230h232v-183q0 -62 -17 -103t-47 -66t-71 -36.5t-90 -13.5zM30 546h232v-230h-232v230z" />
    <glyph glyph-name="semicolon" unicode="&#x37e;" horiz-adv-x="292" 
d="M19 -89q49 6 75.5 28.5t26.5 60.5h-91v230h232v-183q0 -62 -17 -103t-47 -66t-71 -36.5t-90 -13.5zM30 546h232v-230h-232v230z" />
    <glyph glyph-name="less" unicode="&#x3c;" horiz-adv-x="648" 
d="M62 244v214l510 184v-211l-316 -80l316 -80v-211z" />
    <glyph glyph-name="equal" unicode="=" horiz-adv-x="638" 
d="M65 311h508v-196h-508v196zM65 589h508v-196h-508v196z" />
    <glyph glyph-name="greater" unicode="&#x3e;" horiz-adv-x="648" 
d="M76 271l316 80l-316 80v211l510 -184v-214l-510 -184v211z" />
    <glyph glyph-name="question" unicode="?" horiz-adv-x="537" 
d="M136 180h232v-180h-232v180zM158 391l12 12q79 10 109 27.5t30 41.5v1q0 17 -15 28t-44 11t-67 -17t-75 -46l-108 162q48 43 115 72t158 29q56 0 103 -15t81.5 -43t53.5 -67t19 -87v-2q0 -47 -14 -81.5t-39.5 -59.5t-61 -42.5t-78.5 -29.5l-12 -67h-139z" />
    <glyph glyph-name="at" unicode="@" horiz-adv-x="950" 
d="M448 219q33 0 53.5 26t20.5 61q0 29 -15.5 44t-37.5 15q-33 0 -53.5 -26t-20.5 -61q0 -29 15.5 -44t37.5 -15zM484 -162q-98 0 -180 34t-141 93t-92 138.5t-33 171.5q0 91 33.5 171.5t93 140t141.5 94t180 34.5q94 0 172 -31t134.5 -83.5t88 -121.5t31.5 -146
q0 -73 -20.5 -126.5t-52.5 -88.5t-73 -52t-81 -17q-65 0 -102 26t-54 65q-31 -42 -66 -64t-80 -22q-40 0 -73.5 15t-58 42t-38 65.5t-13.5 85.5q0 54 17 103t47 85.5t70 58t85 21.5q46 0 78.5 -23.5t51.5 -55.5l13 68l191 -29l-45 -247q-2 -14 -3.5 -26.5t-1.5 -29.5
q0 -23 14.5 -39t41.5 -16q46 0 78.5 50.5t32.5 150.5q0 69 -27.5 131.5t-78 109t-121.5 74t-157 27.5q-90 0 -165 -31t-128.5 -85t-83 -127t-29.5 -157t29 -157t82.5 -126t128 -83.5t164.5 -30.5q75 0 131.5 17t113.5 50l20 -32q-58 -35 -122.5 -55t-142.5 -20z" />
    <glyph glyph-name="A" unicode="A" horiz-adv-x="800" 
d="M462 260l-64 170l-64 -170h128zM284 705h232l295 -705h-254l-37 94h-245l-36 -94h-250z" />
    <glyph glyph-name="B" unicode="B" horiz-adv-x="708" 
d="M385 177q38 0 57.5 14t19.5 37v2q0 23 -19 37t-57 14h-118v-104h117zM370 425q74 0 74 48v2q0 48 -75 48h-101v-98h102zM40 700h392q73 0 120.5 -16t78.5 -47q19 -19 31 -46t12 -63v-2q0 -63 -34 -101.5t-91 -58.5q68 -20 108 -59t40 -111v-2q0 -42 -17 -77.5t-51 -61.5
t-84.5 -40.5t-116.5 -14.5h-388v700z" />
    <glyph glyph-name="C" unicode="C" horiz-adv-x="723" 
d="M387 -15q-73 0 -138.5 26t-115.5 74t-79.5 115t-29.5 148v2q0 78 28.5 145t79 116t118.5 76.5t146 27.5q58 0 106.5 -13.5t88 -37.5t70 -57.5t52.5 -73.5l-193 -113q-20 38 -49.5 61.5t-77.5 23.5q-30 0 -54 -12t-41 -33t-26.5 -49t-9.5 -59v-2q0 -34 9.5 -62.5t27 -49
t41.5 -32t53 -11.5q50 0 80 24.5t52 63.5l193 -109q-22 -39 -52 -73.5t-70.5 -60t-92 -40.5t-116.5 -15z" />
    <glyph glyph-name="D" unicode="D" horiz-adv-x="749" 
d="M313 204q81 0 128.5 34.5t47.5 110.5v2q0 76 -47.5 110.5t-128.5 34.5h-39v-292h39zM40 700h268q104 0 182.5 -24.5t130.5 -69.5t78 -108.5t26 -141.5v-2q0 -78 -26.5 -143t-80 -112t-133 -73t-185.5 -26h-260v700z" />
    <glyph glyph-name="E" unicode="E" horiz-adv-x="665" 
d="M40 700h597v-192h-367v-71h342v-169h-342v-76h372v-192h-602v700z" />
    <glyph glyph-name="F" unicode="F" horiz-adv-x="641" 
d="M40 700h586v-200h-352v-89h327v-182h-327v-229h-234v700z" />
    <glyph glyph-name="G" unicode="G" horiz-adv-x="754" 
d="M417 -15q-82 0 -153.5 26t-125 74t-84 115t-30.5 148v2q0 78 29 145t81 116t122.5 76.5t153.5 27.5q91 0 163.5 -28t129.5 -78l-131 -158q-35 29 -73 45t-82 16q-34 0 -63 -12.5t-50 -34.5t-32.5 -52t-11.5 -66v-2q0 -37 12.5 -68t34.5 -53t52.5 -34t67.5 -12q30 0 48 4
t32 12v70h-120v150h339v-324q-57 -47 -135 -76t-174 -29z" />
    <glyph glyph-name="H" unicode="H" horiz-adv-x="762" 
d="M40 700h234v-247h214v247h234v-700h-234v251h-214v-251h-234v700z" />
    <glyph glyph-name="I" unicode="I" horiz-adv-x="318" 
d="M42 700h234v-700h-234v700z" />
    <glyph glyph-name="J" unicode="J" horiz-adv-x="564" 
d="M256 -14q-50 0 -90 9.5t-72 27t-56.5 41t-43.5 52.5l153 129q20 -29 41 -45t50 -16t47 22t18 59v435h228v-431q0 -69 -17 -118.5t-56 -88.5q-36 -36 -87.5 -56t-114.5 -20z" />
    <glyph glyph-name="K" unicode="K" horiz-adv-x="730" 
d="M40 700h234v-262l199 262h272l-244 -304l249 -396h-279l-137 222l-60 -73v-149h-234v700z" />
    <glyph glyph-name="L" unicode="L" horiz-adv-x="614" 
d="M40 700h234v-500h329v-200h-563v700z" />
    <glyph glyph-name="M" unicode="M" horiz-adv-x="868" 
d="M40 700h244l150 -246l150 246h244v-700h-233v347l-161 -249h-4l-161 249v-347h-229v700z" />
    <glyph glyph-name="N" unicode="N" horiz-adv-x="780" 
d="M40 700h219l249 -309v309h232v-700h-208l-260 323v-323h-232v700z" />
    <glyph glyph-name="O" unicode="O" horiz-adv-x="812" 
d="M407 192q33 0 60 13t46 34.5t29 49.5t10 59v2q0 31 -10.5 59.5t-29.5 50.5t-46 35t-61 13q-33 0 -60 -13t-46 -34.5t-29 -49.5t-10 -59v-2q0 -31 10.5 -59.5t29.5 -50.5t46 -35t61 -13zM405 -15q-81 0 -150.5 28t-121 77t-80.5 115.5t-29 142.5v2q0 76 29.5 142.5t81 116
t121.5 78t151 28.5t150.5 -28t121 -77t80.5 -115.5t29 -142.5v-2q0 -76 -29.5 -142.5t-81 -116t-121.5 -78t-151 -28.5z" />
    <glyph glyph-name="P" unicode="P" horiz-adv-x="678" 
d="M337 357q45 0 72.5 19.5t27.5 57.5v2q0 38 -26 57.5t-73 19.5h-64v-156h63zM40 700h315q70 0 127.5 -15.5t98.5 -46.5t64 -78t23 -109v-2q0 -63 -23 -111.5t-65 -81.5t-100.5 -49.5t-129.5 -16.5h-76v-190h-234v700z" />
    <glyph glyph-name="Q" unicode="Q" horiz-adv-x="812" 
d="M407 185q25 0 49 8l-80 68l98 110l75 -67q5 22 5 41v2q0 31 -10.5 60t-30 51.5t-47 36t-61.5 13.5q-33 0 -60 -13.5t-46 -36t-29 -51t-10 -59.5v-2q0 -31 10 -60t29 -51.5t46.5 -36t61.5 -13.5zM623 48q-46 -30 -101 -46.5t-117 -16.5q-81 0 -150.5 28t-121 77
t-80.5 115.5t-29 142.5v2q0 76 29.5 142.5t81 116t121.5 78t151 28.5t150.5 -28t121 -77t80.5 -115.5t29 -142.5v-2q0 -57 -16.5 -107.5t-45.5 -93.5l72 -61l-98 -109z" />
    <glyph glyph-name="R" unicode="R" horiz-adv-x="715" 
d="M375 367q42 0 66 18t24 50v2q0 34 -24 50.5t-65 16.5h-102v-137h101zM40 700h342q94 0 154.5 -21.5t97.5 -58.5q32 -32 48 -72t16 -94v-2q0 -77 -37 -130t-101 -84l163 -238h-267l-132 200h-2h-48v-200h-234v700z" />
    <glyph glyph-name="S" unicode="S" horiz-adv-x="664" 
d="M341 -13q-107 0 -199.5 29.5t-159.5 88.5l125 149q57 -44 120 -63t125 -19q32 0 46 8t14 22v2q0 15 -20.5 25t-76.5 21q-59 12 -112.5 28t-94 41t-64.5 62.5t-24 93.5v2q0 50 19.5 93t57 75t93 50t127.5 18q102 0 178.5 -24t137.5 -72l-114 -158q-50 36 -105.5 52.5
t-104.5 16.5q-26 0 -38.5 -8t-12.5 -21v-2q0 -7 4 -13t14.5 -11.5t28.5 -10.5t46 -10q67 -12 122 -29t94.5 -43.5t61 -63.5t21.5 -90v-2q0 -55 -22 -99t-62 -74.5t-97.5 -47t-127.5 -16.5z" />
    <glyph glyph-name="T" unicode="T" horiz-adv-x="672" 
d="M219 502h-206v198h646v-198h-206v-502h-234v502z" />
    <glyph glyph-name="U" unicode="U" horiz-adv-x="760" 
d="M378 -14q-78 0 -141.5 18.5t-108.5 58.5t-69.5 102t-24.5 149v386h238v-383q0 -65 30.5 -94.5t77.5 -29.5q48 0 78 27.5t30 91.5v388h238v-381q0 -90 -25 -153t-70.5 -103t-110 -58.5t-142.5 -18.5z" />
    <glyph glyph-name="V" unicode="V" horiz-adv-x="770" 
d="M-11 700h262l136 -393l136 393h258l-284 -705h-224z" />
    <glyph glyph-name="W" unicode="W" horiz-adv-x="1112" 
d="M0 700h245l99 -336l113 338h202l113 -338l99 336h241l-229 -705h-204l-123 348l-123 -348h-204z" />
    <glyph glyph-name="X" unicode="X" horiz-adv-x="732" 
d="M228 356l-227 344h266l101 -167l102 167h261l-227 -342l237 -358h-266l-111 182l-112 -182h-261z" />
    <glyph glyph-name="Y" unicode="Y" horiz-adv-x="730" 
d="M248 248l-264 452h262l120 -230l121 230h259l-264 -449v-251h-234v248z" />
    <glyph glyph-name="Z" unicode="Z" horiz-adv-x="688" 
d="M18 164l317 344h-305v192h641v-164l-317 -344h317v-192h-653v164z" />
    <glyph glyph-name="bracketleft" unicode="[" horiz-adv-x="450" 
d="M50 700h368v-139h-175v-552h175v-139h-368v830z" />
    <glyph glyph-name="backslash" unicode="\" horiz-adv-x="540" 
d="M-34 798h179l443 -926h-179z" />
    <glyph glyph-name="bracketright" unicode="]" horiz-adv-x="450" 
d="M32 9h175v552h-175v139h368v-830h-368v139z" />
    <glyph glyph-name="asciicircum" unicode="^" 
d="M174 698h152l140 -205h-156l-61 77l-61 -77h-154z" />
    <glyph glyph-name="underscore" unicode="_" horiz-adv-x="600" 
d="M-2 -44h604v-116h-604v116z" />
    <glyph glyph-name="grave" unicode="`" 
d="M67 715l221 57l96 -192h-152z" />
    <glyph glyph-name="a" unicode="a" horiz-adv-x="606" 
d="M282 118q30 0 50 22.5t20 61.5v23q-10 4 -24 6.5t-28 2.5q-34 0 -52 -17.5t-18 -43.5v-2q0 -24 15 -38.5t37 -14.5zM192 -13q-39 0 -72 11t-57 32.5t-37 52.5t-13 72v2q0 82 56 126t152 44q17 0 36 -1.5t36.5 -4.5t32.5 -6.5t24 -7.5v9q0 38 -24 58.5t-77 20.5
q-42 0 -78.5 -8.5t-72.5 -22.5l-40 151q48 18 103 29t127 11q84 0 139.5 -17.5t91.5 -53.5q31 -31 44 -72t13 -101v-311h-227v55q-29 -31 -67.5 -49.5t-89.5 -18.5z" />
    <glyph glyph-name="b" unicode="b" horiz-adv-x="676" 
d="M347 174q39 0 65 28t26 70v2q0 42 -26 70t-65 28t-65 -28t-26 -70v-2q0 -20 7 -38t19 -31.5t28.5 -21t36.5 -7.5zM425 -13q-62 0 -100 23t-64 52v-62h-227v730h227v-251q14 15 29.5 29.5t34.5 25.5t43 18t55 7q49 0 92 -20.5t75 -58t50 -89t18 -114.5v-2
q0 -65 -18.5 -118t-50 -91t-74 -58.5t-90.5 -20.5z" />
    <glyph glyph-name="c" unicode="c" horiz-adv-x="567" 
d="M304 -14q-62 0 -115 23t-91 62t-59.5 90.5t-21.5 108.5v2q0 57 21.5 109t60.5 91.5t94 62.5t122 23q91 0 153 -42t94 -109l-163 -92q-14 26 -33 40.5t-47 14.5q-36 0 -60 -27.5t-24 -68.5v-2q0 -43 23.5 -70.5t57.5 -27.5q30 0 49 14.5t36 40.5l165 -94
q-37 -69 -100.5 -109t-161.5 -40z" />
    <glyph glyph-name="d" unicode="d" horiz-adv-x="676" 
d="M329 174q39 0 65 28t26 70v2q0 20 -7 38t-19 31.5t-29 21t-36 7.5q-39 0 -65 -28t-26 -70v-2q0 -42 26 -70t65 -28zM253 -13q-50 0 -92.5 20.5t-74.5 58t-50 89t-18 114.5v2q0 65 18.5 118t50 91t74 58.5t90.5 20.5q62 0 100 -23t64 -52v246h227v-730h-227v67
q-14 -15 -29.5 -29.5t-34.5 -25.5t-43 -18t-55 -7z" />
    <glyph glyph-name="e" unicode="e" horiz-adv-x="598" 
d="M375 320q-4 39 -25 60.5t-51 21.5q-29 0 -48 -22t-24 -60h148zM317 -13q-67 0 -122.5 20.5t-95 57.5t-61 89t-21.5 116v2q0 61 21 113.5t58 91t88.5 60.5t113.5 22q73 0 126.5 -23.5t88.5 -64.5t52 -96t17 -117v-19t-1 -19h-351q12 -36 39 -54.5t64 -18.5q31 0 57.5 14
t53.5 42l122 -97q-41 -53 -100.5 -86t-148.5 -33z" />
    <glyph glyph-name="f" unicode="f" horiz-adv-x="426" 
d="M76 371h-64v175h64q2 45 12.5 79t36.5 60q28 28 65.5 40t94.5 12q51 0 83.5 -4t55.5 -11v-142q-17 4 -34 6t-39 2q-53 0 -53 -44v-4h126v-169h-121v-371h-227v371z" />
    <glyph glyph-name="g" unicode="g" horiz-adv-x="676" 
d="M329 218q42 0 66.5 25t24.5 61v2q0 35 -24.5 60t-66.5 25t-66.5 -25.5t-24.5 -61.5v-2q0 -35 24.5 -59.5t66.5 -24.5zM325 -162q-91 0 -164 17.5t-139 50.5l70 137q46 -24 93 -38t104 -14q64 0 97 31.5t33 88.5v16q-12 -13 -27.5 -26.5t-35 -24t-43.5 -17.5t-52 -7
q-53 0 -97.5 18t-77 51t-50.5 79t-18 103v2q0 57 18 104t49.5 80.5t73.5 51.5t89 18q60 0 98.5 -20t68.5 -51v58h227v-408q0 -76 -16.5 -129t-54.5 -91q-37 -37 -95.5 -58.5t-150.5 -21.5z" />
    <glyph glyph-name="h" unicode="h" horiz-adv-x="645" 
d="M34 730h227v-257q26 34 67.5 60t99.5 26q87 0 137 -53t50 -146v-360h-227v287q0 35 -18 54.5t-44 19.5t-45.5 -19.5t-19.5 -54.5v-287h-227v730z" />
    <glyph glyph-name="i" unicode="i" horiz-adv-x="299" 
d="M36 546h227v-546h-227v546zM32 730h235v-145h-235v145z" />
    <glyph glyph-name="j" unicode="j" horiz-adv-x="302" 
d="M50 -163q-25 0 -48.5 3t-41.5 5v133h17q32 0 45.5 14t13.5 51v503h227v-507q0 -59 -14.5 -97.5t-42 -62t-67 -33t-89.5 -9.5zM32 730h235v-145h-235v145z" />
    <glyph glyph-name="k" unicode="k" horiz-adv-x="614" 
d="M34 730h227v-352l117 168h247l-171 -222l174 -324h-243l-79 150l-45 -58v-92h-227v730z" />
    <glyph glyph-name="l" unicode="l" horiz-adv-x="299" 
d="M36 730h227v-730h-227v730z" />
    <glyph glyph-name="m" unicode="m" horiz-adv-x="991" 
d="M34 546h227v-73q26 34 67 60t98 26q56 0 97 -23t64 -67q35 39 78.5 64.5t106.5 25.5q88 0 138.5 -53t50.5 -146v-360h-227v289q0 35 -17.5 53.5t-42.5 18.5t-44 -18.5t-19 -53.5v-289h-227v289q0 35 -17.5 53.5t-42.5 18.5t-44 -18.5t-19 -53.5v-289h-227v546z" />
    <glyph glyph-name="n" unicode="n" horiz-adv-x="645" 
d="M34 546h227v-76q13 17 30 33t38 28.5t45.5 20t53.5 7.5q87 0 137 -53t50 -146v-360h-227v287q0 35 -18 54.5t-44 19.5t-45.5 -19.5t-19.5 -54.5v-287h-227v546z" />
    <glyph glyph-name="o" unicode="o" horiz-adv-x="648" 
d="M325 176q38 0 63 28t25 67v2q0 41 -26 69t-64 28t-63 -28t-25 -67v-2q0 -41 26 -69t64 -28zM323 -13q-67 0 -123.5 22.5t-97 61.5t-63 90.5t-22.5 109.5v2q0 58 23 110t63.5 91t97 62t124.5 23q67 0 123.5 -22.5t97 -61.5t63 -90.5t22.5 -109.5v-2q0 -58 -23 -110
t-63.5 -91t-97.5 -62t-124 -23z" />
    <glyph glyph-name="p" unicode="p" horiz-adv-x="676" 
d="M347 174q39 0 65 28t26 70v2q0 42 -26 70t-65 28t-65 -28t-26 -70v-2q0 -20 7 -38t19 -31.5t28.5 -21t36.5 -7.5zM34 546h227v-67q14 15 29.5 29.5t34.5 25.5t43 18t55 7q49 0 92 -20.5t75 -58t50 -89t18 -114.5v-2q0 -65 -18.5 -118t-50 -91t-74 -58.5t-90.5 -20.5
q-62 0 -100 23t-64 52v-222h-227v706z" />
    <glyph glyph-name="q" unicode="q" horiz-adv-x="676" 
d="M329 174q39 0 65 28t26 70v2q0 20 -7 38t-19 31.5t-29 21t-36 7.5q-39 0 -65 -28t-26 -70v-2q0 -42 26 -70t65 -28zM415 67q-14 -15 -29.5 -29.5t-34.5 -25.5t-43 -18t-55 -7q-50 0 -92.5 20.5t-74.5 58t-50 89t-18 114.5v2q0 65 18.5 118t50 91t74 58.5t90.5 20.5
q62 0 100 -23t64 -52v62h227v-706h-227v227z" />
    <glyph glyph-name="r" unicode="r" horiz-adv-x="437" 
d="M34 546h227v-110q23 55 63 88t108 30v-241h-24q-72 0 -109.5 -41.5t-37.5 -132.5v-139h-227v546z" />
    <glyph glyph-name="s" unicode="s" horiz-adv-x="525" 
d="M275 -13q-80 0 -150.5 20t-129.5 59l77 129q50 -31 102.5 -46t99.5 -15q33 0 33 18v2q0 8 -12 14.5t-53 17.5q-52 13 -93 27.5t-70 35t-44.5 50t-15.5 71.5v2q0 45 17 80t48.5 58.5t75.5 36t97 12.5q68 0 131.5 -16.5t113.5 -46.5l-72 -135q-44 24 -91.5 37.5t-82.5 13.5
q-32 0 -32 -17v-2q0 -8 13 -15t54 -17q52 -13 93 -27.5t69.5 -35.5t43.5 -50t15 -71v-2q0 -90 -62.5 -139t-174.5 -49z" />
    <glyph glyph-name="t" unicode="t" horiz-adv-x="446" 
d="M282 -12q-101 0 -153.5 47.5t-52.5 147.5v188h-64v175h64v137h227v-137h126v-175h-126v-138q0 -31 14 -43.5t41 -12.5q32 0 69 17v-175q-27 -14 -65 -22.5t-80 -8.5z" />
    <glyph glyph-name="u" unicode="u" horiz-adv-x="645" 
d="M217 -13q-87 0 -137 53t-50 146v360h227v-287q0 -35 18 -54.5t44 -19.5t45.5 19.5t19.5 54.5v287h227v-546h-227v73q-26 -34 -67.5 -60t-99.5 -26z" />
    <glyph glyph-name="v" unicode="v" horiz-adv-x="650" 
d="M0 546h238l88 -274l89 274h235l-221 -550h-208z" />
    <glyph glyph-name="w" unicode="w" horiz-adv-x="861" 
d="M1 546h217l56 -220l66 222h181l67 -224l58 222h214l-167 -550h-190l-73 234l-75 -234h-189z" />
    <glyph glyph-name="x" unicode="x" horiz-adv-x="594" 
d="M169 273l-176 273h245l60 -110l61 110h241l-175 -273l176 -273h-245l-61 111l-61 -111h-241z" />
    <glyph glyph-name="y" unicode="y" horiz-adv-x="652" 
d="M225 -163q-60 0 -112.5 15.5t-98.5 41.5l66 155q31 -17 57.5 -26.5t42.5 -9.5q21 0 37 8l-214 525h235l95 -288l87 288h231l-189 -508q-20 -54 -41.5 -92t-49.5 -62t-63.5 -35.5t-82.5 -11.5z" />
    <glyph glyph-name="z" unicode="z" horiz-adv-x="563" 
d="M15 142l222 226h-213v178h527v-142l-223 -226h223v-178h-536v142z" />
    <glyph glyph-name="braceleft" unicode="{" horiz-adv-x="490" 
d="M441 -141q-81 6 -137 20t-90.5 36.5t-49.5 55t-15 76.5q0 6 0.5 16.5t1 22.5t1 23t0.5 17q0 28 -9 46t-25.5 28.5t-40 14.5t-52.5 4h-6v136h6q29 0 52.5 4t40 14.5t25.5 28.5t9 46q0 6 -0.5 17t-1 23t-1 22.5t-0.5 16.5q0 44 15 76.5t49.5 55t90.5 36.5t137 20l32 -121
q-41 -7 -65.5 -15.5t-38.5 -20.5t-18.5 -29t-4.5 -41q0 -11 1.5 -31t1.5 -36q0 -55 -30 -87.5t-89 -46.5q59 -14 89 -46.5t30 -87.5q0 -16 -1.5 -36t-1.5 -31q0 -24 4.5 -41t18.5 -29t38.5 -20.5t65.5 -15.5z" />
    <glyph glyph-name="bar" unicode="|" horiz-adv-x="360" 
d="M95 798h170v-926h-170v926z" />
    <glyph glyph-name="braceright" unicode="}" horiz-adv-x="490" 
d="M17 -20q40 7 65 15.5t39 20.5t18.5 29t4.5 41q0 11 -1.5 31t-1.5 36q0 55 30 87.5t89 46.5q-59 14 -89 46.5t-30 87.5q0 16 1.5 36t1.5 31q0 24 -4.5 41t-18.5 29t-39 20.5t-65 15.5l32 121q81 -6 136.5 -20t90 -36.5t50 -55t15.5 -76.5q0 -6 -0.5 -16.5t-1 -22.5t-1 -23
t-0.5 -17q0 -28 9 -46t25.5 -28.5t40 -14.5t52.5 -4h6v-136h-6q-59 0 -93 -19t-34 -74q0 -6 0.5 -17t1 -23t1 -22.5t0.5 -16.5q0 -44 -15.5 -76.5t-50 -55t-90 -36.5t-136.5 -20z" />
    <glyph glyph-name="asciitilde" unicode="~" 
d="M34 241q15 86 44 122.5t80 36.5q22 0 46 -6t46 -13.5t40.5 -13.5t29.5 -6q19 0 27.5 10.5t17.5 33.5l101 -25q-15 -86 -44 -122.5t-80 -36.5q-22 0 -46 6t-46 13.5t-40.5 13.5t-29.5 6q-19 0 -27.5 -10.5t-17.5 -33.5z" />
    <glyph glyph-name="nonbreakingspace" unicode="&#xa0;" horiz-adv-x="254" 
 />
    <glyph glyph-name="exclamdown" unicode="&#xa1;" horiz-adv-x="324" 
d="M35 150l70 332h114l70 -332v-150h-254v150zM46 700h232v-180h-232v180z" />
    <glyph glyph-name="cent" unicode="&#xa2;" horiz-adv-x="569" 
d="M284 477q-39 -9 -61 -43t-22 -76v-2q0 -75 46 -106zM210 90q-44 15 -79.5 41t-60.5 60t-39 75.5t-14 87.5v2q0 58 19.5 108.5t56 88t88 60t116.5 25.5l11 68h127l-14 -85q54 -19 91.5 -52.5t54.5 -69.5l-143 -80q-8 12 -19 23.5t-26 19.5l-36 -228q24 5 45 20t36 39
l145 -82q-34 -62 -92.5 -98t-141.5 -40l-13 -79h-127z" />
    <glyph glyph-name="sterling" unicode="&#xa3;" horiz-adv-x="633" 
d="M28 130l74 32v97h-74v146h74v20q0 66 19.5 121.5t57.5 93.5q74 74 207 74q78 0 138 -24.5t102 -62.5l-118 -164q-20 21 -44.5 34t-53.5 13q-37 0 -57.5 -22t-20.5 -60v-23h204v-146h-204v-85h282v-174h-586v130z" />
    <glyph glyph-name="currency" unicode="&#xa4;" horiz-adv-x="644" 
d="M405 -15q-64 0 -116 18t-91.5 50.5t-65.5 77t-36 98.5h-70v106h61q-1 3 -1 6.5v6.5v2v9.5t1 9.5h-61v106h74q11 49 36.5 92.5t65 76.5t92 52t117.5 19q70 0 132 -25.5t102 -71.5l-131 -142q-14 17 -39 31t-60 14q-32 0 -55 -13.5t-36 -37.5h129v-102h-149q-1 -4 -1 -8v-8
v-2q0 -9 1 -14h149v-102h-131q13 -25 37 -40t59 -15q33 0 58.5 14.5t42.5 34.5l129 -143q-42 -49 -102.5 -74.5t-140.5 -25.5z" />
    <glyph glyph-name="yen" unicode="&#xa5;" horiz-adv-x="730" 
d="M248 94h-184v131h184v39h-184v131h132l-202 305h262l110 -202l111 202h259l-203 -305h133v-131h-184v-39h184v-131h-184v-94h-234v94z" />
    <glyph glyph-name="section" unicode="&#xa7;" horiz-adv-x="620" 
d="M386 305q22 0 34.5 6t12.5 20v2q0 14 -29 24.5t-72 20.5q-32 8 -58 12.5t-40 4.5q-22 0 -34.5 -6t-12.5 -20v-2q0 -14 29 -24.5t72 -20.5q32 -8 58 -12.5t40 -4.5zM293 -15q-36 0 -71.5 5.5t-67 14.5t-58 20t-44.5 22l72 135q20 -11 43.5 -20.5t47.5 -16.5t47 -10.5
t43 -3.5q26 0 34.5 6.5t8.5 17.5v2q0 11 -24 19.5t-60 16.5q-35 8 -76 18t-76 26t-58.5 39.5t-23.5 59.5v2q0 38 24.5 63t67.5 39q-23 18 -37.5 45t-14.5 62v2q0 31 15 61t46.5 53.5t80 37.5t115.5 14q36 0 71.5 -5.5t67 -14.5t58 -20t44.5 -22l-72 -135q-20 11 -43.5 20.5
t-47.5 16t-47.5 10.5t-42.5 4q-26 0 -34.5 -6t-8.5 -17v-2q0 -11 24 -20t60 -17q35 -8 76 -18t76 -26t58.5 -39.5t23.5 -59.5v-2q0 -38 -24.5 -63t-67.5 -39q23 -18 37.5 -44.5t14.5 -61.5v-2q0 -32 -15 -62t-46.5 -53t-80 -37.5t-115.5 -14.5z" />
    <glyph glyph-name="dieresis" unicode="&#xa8;" 
d="M46 730h184v-150h-184v150zM270 730h184v-150h-184v150z" />
    <glyph glyph-name="copyright" unicode="&#xa9;" horiz-adv-x="830" 
d="M421 156q-45 0 -82.5 15t-65 41.5t-42.5 62.5t-15 78v2q0 41 15 77t42.5 63t65.5 43t84 16q65 0 106 -27t66 -72l-106 -63q-11 21 -27 34t-43 13q-32 0 -52 -24t-20 -59v-2q0 -37 20 -60t52 -23q28 0 44.5 13.5t28.5 34.5l106 -60q-25 -43 -66.5 -73t-110.5 -30zM414 25
q69 0 127.5 26t101.5 70t67.5 103.5t24.5 125.5v2q0 66 -24.5 125t-67 103t-101 69.5t-126.5 25.5q-69 0 -127.5 -26t-101.5 -70t-67.5 -103.5t-24.5 -125.5v-2q0 -66 24 -125t67 -103t101.5 -69.5t126.5 -25.5zM414 -15q-76 0 -142 29t-114.5 78.5t-76.5 115.5t-28 140v2
q0 74 28 140t77 116t115.5 79.5t142.5 29.5t142 -29t114.5 -78.5t76.5 -115.5t28 -140v-2q0 -74 -28 -140t-77 -116t-115.5 -79.5t-142.5 -29.5z" />
    <glyph glyph-name="ordfeminine" unicode="&#xaa;" horiz-adv-x="390" 
d="M184 469q17 0 28 11.5t11 33.5v12q-5 2 -13 3.5t-16 1.5q-18 0 -28 -9.5t-10 -23.5v-2q0 -13 8 -20t20 -7zM34 351h318v-87h-318v87zM135 396q-44 0 -71.5 23.5t-27.5 68.5v2q0 45 31 68.5t84 23.5q19 0 40 -3.5t31 -7.5v3q0 44 -56 44q-23 0 -43 -4.5t-40 -12.5l-22 83
q26 10 56.5 16t70.5 6q46 0 76.5 -9.5t50.5 -29.5q17 -17 24 -40t7 -56v-169h-125v32q-16 -17 -37 -27.5t-49 -10.5z" />
    <glyph glyph-name="guillemotleft" unicode="&#xab;" horiz-adv-x="618" 
d="M19 224v88l153 204l156 -78l-130 -170l130 -170l-156 -78zM266 264v8l183 244l156 -78l-130 -170l130 -170l-156 -78z" />
    <glyph glyph-name="registered" unicode="&#xae;" horiz-adv-x="830" 
d="M430 370q23 0 36.5 9.5t13.5 27.5v2q0 18 -13.5 27t-35.5 9h-56v-75h55zM246 553h188q51 0 85 -12t54 -32q17 -17 26 -39.5t9 -52.5v-2q0 -42 -20.5 -70.5t-55.5 -45.5l90 -131h-146l-74 110h-2h-25v-110h-129v385zM414 25q69 0 127.5 26t101.5 70t67.5 103.5t24.5 125.5
v2q0 66 -24.5 125t-67 103t-101 69.5t-126.5 25.5q-69 0 -127.5 -26t-101.5 -70t-67.5 -103.5t-24.5 -125.5v-2q0 -66 24 -125t67 -103t101.5 -69.5t126.5 -25.5zM414 -15q-76 0 -142 29t-114.5 78.5t-76.5 115.5t-28 140v2q0 74 28 140t77 116t115.5 79.5t142.5 29.5
t142 -29t114.5 -78.5t76.5 -115.5t28 -140v-2q0 -74 -28 -140t-77 -116t-115.5 -79.5t-142.5 -29.5z" />
    <glyph glyph-name="macron" unicode="&#xaf;" 
d="M55 710h390v-125h-390v125z" />
    <glyph glyph-name="macron" unicode="&#x2c9;" 
d="M55 710h390v-125h-390v125z" />
    <glyph glyph-name="degree" unicode="&#xb0;" horiz-adv-x="464" 
d="M232 445q32 0 54 22t22 54v2q0 32 -23 54.5t-53 22.5q-31 0 -53.5 -22.5t-22.5 -54.5v-2q0 -32 22 -54t54 -22zM232 336q-39 0 -74 14.5t-61 39.5t-41 58.5t-15 72.5v2q0 39 15.5 72.5t41.5 59t60.5 40t73.5 14.5q38 0 72.5 -14.5t61 -40t42 -59t15.5 -72.5v-2
q0 -39 -15 -72.5t-41 -58.5t-61 -39.5t-74 -14.5z" />
    <glyph glyph-name="plusminus" unicode="&#xb1;" horiz-adv-x="621" 
d="M319 -15q-108 0 -186.5 34t-136.5 93l138 139q78 -77 164 -77q39 0 62 15.5t23 35.5v2q0 19 -19 31.5t-74 12.5h-68v164h62q51 0 69.5 12t18.5 30v2q0 22 -21 34.5t-53 12.5q-42 0 -76 -20.5t-63 -50.5l-132 133q22 25 51 48.5t66 40.5t82.5 27.5t101.5 10.5
q60 0 109 -14.5t84.5 -39.5t54.5 -59t19 -73v-2q0 -61 -32.5 -100.5t-85.5 -60.5q59 -15 96.5 -54.5t37.5 -107.5v-2q0 -47 -20.5 -87t-58 -69t-92 -45t-121.5 -16z" />
    <glyph glyph-name="acute" unicode="&#xb4;" 
d="M212 772l221 -57l-165 -135h-152z" />
    <glyph glyph-name="mu" unicode="&#xb5;" horiz-adv-x="812" 
d="M407 192q33 0 60 13t46 34.5t29 49.5t10 59v2q0 31 -10.5 59.5t-29.5 50.5t-46 35t-61 13q-33 0 -60 -13t-46 -34.5t-29 -49.5t-10 -59v-2q0 -31 10.5 -59.5t29.5 -50.5t46 -35t61 -13zM506 -1q-48 -12 -101 -12q-81 0 -150.5 28t-121 76.5t-80.5 114.5t-29 142v2
q0 76 29.5 142.5t81 116t121.5 78t151 28.5t150.5 -28t121 -77t80.5 -115.5t29 -142.5v-2q0 -68 -23 -127t-65 -107l173 -182v-10h-292z" />
    <glyph glyph-name="mu" unicode="&#x3bc;" horiz-adv-x="812" 
d="M407 192q33 0 60 13t46 34.5t29 49.5t10 59v2q0 31 -10.5 59.5t-29.5 50.5t-46 35t-61 13q-33 0 -60 -13t-46 -34.5t-29 -49.5t-10 -59v-2q0 -31 10.5 -59.5t29.5 -50.5t46 -35t61 -13zM506 -1q-48 -12 -101 -12q-81 0 -150.5 28t-121 76.5t-80.5 114.5t-29 142v2
q0 76 29.5 142.5t81 116t121.5 78t151 28.5t150.5 -28t121 -77t80.5 -115.5t29 -142.5v-2q0 -68 -23 -127t-65 -107l173 -182v-10h-292z" />
    <glyph glyph-name="paragraph" unicode="&#xb6;" horiz-adv-x="601" 
d="M327 210h-18q-66 0 -121 16t-94.5 47t-61.5 76t-22 103v2q0 60 21.5 106t62 77t97 47t127.5 16h243v-700h-234v210z" />
    <glyph glyph-name="periodcentered" unicode="&#xb7;" horiz-adv-x="282" 
d="M25 430h232v-230h-232v230z" />
    <glyph glyph-name="periodcentered" unicode="&#x2219;" horiz-adv-x="282" 
d="M25 430h232v-230h-232v230z" />
    <glyph glyph-name="cedilla" unicode="&#xb8;" 
d="M101 -98l95 118h137l-58 -193z" />
    <glyph glyph-name="ordmasculine" unicode="&#xba;" horiz-adv-x="390" 
d="M196 497q22 0 35 13.5t13 36.5v2q0 23 -14.5 37.5t-35.5 14.5q-22 0 -35 -13.5t-13 -36.5v-2q0 -23 14.5 -37.5t35.5 -14.5zM51 351h288v-87h-288v87zM194 393q-37 0 -67.5 12t-53 33t-35 49t-12.5 60v2q0 32 12.5 60.5t35 49.5t54 33.5t68.5 12.5t67.5 -12t53 -33
t35 -49t12.5 -60v-2q0 -32 -12.5 -60.5t-35 -49.5t-54 -33.5t-68.5 -12.5z" />
    <glyph glyph-name="guillemotright" unicode="&#xbb;" horiz-adv-x="618" 
d="M13 98l130 170l-130 170l156 78l183 -244v-8l-183 -244zM290 98l130 170l-130 170l156 78l153 -204v-88l-153 -204z" />
    <glyph glyph-name="questiondown" unicode="&#xbf;" horiz-adv-x="537" 
d="M264 -12q-56 0 -103 15t-81.5 43t-53.5 67t-19 87v2q0 47 14 81.5t39.5 59.5t61 42.5t78.5 29.5l12 67h139l28 -173l-12 -12q-40 -5 -66.5 -12t-42.5 -15.5t-23 -19t-7 -22.5v-1q0 -17 15 -28t44 -11t67 17t75 46l108 -162q-48 -43 -115 -72t-158 -29zM169 700h232v-180
h-232v180z" />
    <glyph glyph-name="Agrave" unicode="&#xc0;" horiz-adv-x="800" 
d="M177 875l221 57l96 -192h-152zM462 260l-64 170l-64 -170h128zM284 705h232l295 -705h-254l-37 94h-245l-36 -94h-250z" />
    <glyph glyph-name="Aacute" unicode="&#xc1;" horiz-adv-x="800" 
d="M402 932l221 -57l-165 -135h-152zM462 260l-64 170l-64 -170h128zM284 705h232l295 -705h-254l-37 94h-245l-36 -94h-250z" />
    <glyph glyph-name="Acircumflex" unicode="&#xc2;" horiz-adv-x="800" 
d="M318 912h164l133 -172h-127l-89 56l-89 -56h-125zM462 260l-64 170l-64 -170h128zM284 705h232l295 -705h-254l-37 94h-245l-36 -94h-250z" />
    <glyph glyph-name="Atilde" unicode="&#xc3;" horiz-adv-x="800" 
d="M184 760q15 86 44 122.5t80 36.5q22 0 46 -6t46 -13.5t40.5 -13.5t29.5 -6q19 0 27.5 10.5t17.5 33.5l101 -25q-15 -86 -44 -122.5t-80 -36.5q-22 0 -46 6t-46 13.5t-40.5 13.5t-29.5 6q-19 0 -27.5 -10.5t-17.5 -33.5zM462 260l-64 170l-64 -170h128zM284 705h232
l295 -705h-254l-37 94h-245l-36 -94h-250z" />
    <glyph glyph-name="Adieresis" unicode="&#xc4;" horiz-adv-x="800" 
d="M196 890h184v-150h-184v150zM420 890h184v-150h-184v150zM462 260l-64 170l-64 -170h128zM284 705h232l295 -705h-254l-37 94h-245l-36 -94h-250z" />
    <glyph glyph-name="Aring" unicode="&#xc5;" horiz-adv-x="800" 
d="M462 260l-64 170l-64 -170h128zM400 684q29 0 50 20.5t21 49.5v2q0 29 -21 49.5t-50 20.5t-50 -20.5t-21 -49.5v-2q0 -29 21 -49.5t50 -20.5zM276 687q-9 15 -14.5 32t-5.5 36v2q0 28 12 52.5t31.5 43t45.5 29t55 10.5q28 0 54.5 -10.5t46 -29t31.5 -43t12 -52.5v-2
q0 -19 -5.5 -36t-14.5 -32l287 -687h-254l-37 94h-245l-36 -94h-250z" />
    <glyph glyph-name="AE" unicode="&#xc6;" horiz-adv-x="1080" 
d="M480 260v255h-6l-128 -255h134zM344 700h708v-192h-347v-71h322v-169h-322v-76h352v-192h-577v94h-217l-47 -94h-235z" />
    <glyph glyph-name="Ccedilla" unicode="&#xc7;" horiz-adv-x="723" 
d="M214 -98l77 95q-57 15 -105.5 46.5t-84.5 76.5t-56.5 102.5t-20.5 125.5v2q0 78 28.5 145t79 116t118.5 76.5t146 27.5q58 0 106.5 -13.5t88 -37.5t70 -57.5t52.5 -73.5l-193 -113q-20 38 -49.5 61.5t-77.5 23.5q-30 0 -54 -12t-41 -33t-26.5 -49t-9.5 -59v-2
q0 -34 9.5 -62.5t27 -49t41.5 -32t53 -11.5q50 0 80 24.5t52 63.5l193 -109q-20 -35 -46 -66.5t-60.5 -56.5t-78 -41.5t-97.5 -22.5l-48 -160z" />
    <glyph glyph-name="Egrave" unicode="&#xc8;" horiz-adv-x="665" 
d="M144 875l221 57l96 -192h-152zM40 700h597v-192h-367v-71h342v-169h-342v-76h372v-192h-602v700z" />
    <glyph glyph-name="Eacute" unicode="&#xc9;" horiz-adv-x="665" 
d="M335 932l221 -57l-165 -135h-152zM40 700h597v-192h-367v-71h342v-169h-342v-76h372v-192h-602v700z" />
    <glyph glyph-name="Ecircumflex" unicode="&#xca;" horiz-adv-x="665" 
d="M262 912h164l133 -172h-127l-89 56l-89 -56h-125zM40 700h597v-192h-367v-71h342v-169h-342v-76h372v-192h-602v700z" />
    <glyph glyph-name="Edieresis" unicode="&#xcb;" horiz-adv-x="665" 
d="M140 890h184v-150h-184v150zM364 890h184v-150h-184v150zM40 700h597v-192h-367v-71h342v-169h-342v-76h372v-192h-602v700z" />
    <glyph glyph-name="Igrave" unicode="&#xcc;" horiz-adv-x="318" 
d="M-69 875l221 57l96 -192h-152zM42 700h234v-700h-234v700z" />
    <glyph glyph-name="Iacute" unicode="&#xcd;" horiz-adv-x="318" 
d="M166 932l221 -57l-165 -135h-152zM42 700h234v-700h-234v700z" />
    <glyph glyph-name="Icircumflex" unicode="&#xce;" horiz-adv-x="318" 
d="M77 912h164l133 -172h-127l-89 56l-89 -56h-125zM42 700h234v-700h-234v700z" />
    <glyph glyph-name="Idieresis" unicode="&#xcf;" horiz-adv-x="318" 
d="M-45 890h184v-150h-184v150zM179 890h184v-150h-184v150zM42 700h234v-700h-234v700z" />
    <glyph glyph-name="Eth" unicode="&#xd0;" horiz-adv-x="817" 
d="M381 194q85 0 130.5 37.5t45.5 117.5v2q0 80 -45.5 117.5t-130.5 37.5h-49v-69h86v-169h-86v-74h49zM108 268h-85v169h85v263h268q104 0 182.5 -24.5t130.5 -69.5t78 -108.5t26 -141.5v-2q0 -78 -26.5 -143t-80 -112t-133 -73t-185.5 -26h-260v268z" />
    <glyph glyph-name="Ntilde" unicode="&#xd1;" horiz-adv-x="780" 
d="M174 760q15 86 44 122.5t80 36.5q22 0 46 -6t46 -13.5t40.5 -13.5t29.5 -6q19 0 27.5 10.5t17.5 33.5l101 -25q-15 -86 -44 -122.5t-80 -36.5q-22 0 -46 6t-46 13.5t-40.5 13.5t-29.5 6q-19 0 -27.5 -10.5t-17.5 -33.5zM40 700h219l249 -309v309h232v-700h-208l-260 323
v-323h-232v700z" />
    <glyph glyph-name="Ograve" unicode="&#xd2;" horiz-adv-x="812" 
d="M173 875l221 57l96 -192h-152zM407 192q33 0 60 13t46 34.5t29 49.5t10 59v2q0 31 -10.5 59.5t-29.5 50.5t-46 35t-61 13q-33 0 -60 -13t-46 -34.5t-29 -49.5t-10 -59v-2q0 -31 10.5 -59.5t29.5 -50.5t46 -35t61 -13zM405 -15q-81 0 -150.5 28t-121 77t-80.5 115.5
t-29 142.5v2q0 76 29.5 142.5t81 116t121.5 78t151 28.5t150.5 -28t121 -77t80.5 -115.5t29 -142.5v-2q0 -76 -29.5 -142.5t-81 -116t-121.5 -78t-151 -28.5z" />
    <glyph glyph-name="Oacute" unicode="&#xd3;" horiz-adv-x="812" 
d="M418 932l221 -57l-165 -135h-152zM407 192q33 0 60 13t46 34.5t29 49.5t10 59v2q0 31 -10.5 59.5t-29.5 50.5t-46 35t-61 13q-33 0 -60 -13t-46 -34.5t-29 -49.5t-10 -59v-2q0 -31 10.5 -59.5t29.5 -50.5t46 -35t61 -13zM405 -15q-81 0 -150.5 28t-121 77t-80.5 115.5
t-29 142.5v2q0 76 29.5 142.5t81 116t121.5 78t151 28.5t150.5 -28t121 -77t80.5 -115.5t29 -142.5v-2q0 -76 -29.5 -142.5t-81 -116t-121.5 -78t-151 -28.5z" />
    <glyph glyph-name="Ocircumflex" unicode="&#xd4;" horiz-adv-x="812" 
d="M324 907h164l133 -172h-127l-89 56l-89 -56h-125zM407 192q33 0 60 13t46 34.5t29 49.5t10 59v2q0 31 -10.5 59.5t-29.5 50.5t-46 35t-61 13q-33 0 -60 -13t-46 -34.5t-29 -49.5t-10 -59v-2q0 -31 10.5 -59.5t29.5 -50.5t46 -35t61 -13zM405 -15q-81 0 -150.5 28t-121 77
t-80.5 115.5t-29 142.5v2q0 76 29.5 142.5t81 116t121.5 78t151 28.5t150.5 -28t121 -77t80.5 -115.5t29 -142.5v-2q0 -76 -29.5 -142.5t-81 -116t-121.5 -78t-151 -28.5z" />
    <glyph glyph-name="Otilde" unicode="&#xd5;" horiz-adv-x="812" 
d="M190 760q15 86 44 122.5t80 36.5q22 0 46 -6t46 -13.5t40.5 -13.5t29.5 -6q19 0 27.5 10.5t17.5 33.5l101 -25q-15 -86 -44 -122.5t-80 -36.5q-22 0 -46 6t-46 13.5t-40.5 13.5t-29.5 6q-19 0 -27.5 -10.5t-17.5 -33.5zM407 192q33 0 60 13t46 34.5t29 49.5t10 59v2
q0 31 -10.5 59.5t-29.5 50.5t-46 35t-61 13q-33 0 -60 -13t-46 -34.5t-29 -49.5t-10 -59v-2q0 -31 10.5 -59.5t29.5 -50.5t46 -35t61 -13zM405 -15q-81 0 -150.5 28t-121 77t-80.5 115.5t-29 142.5v2q0 76 29.5 142.5t81 116t121.5 78t151 28.5t150.5 -28t121 -77
t80.5 -115.5t29 -142.5v-2q0 -76 -29.5 -142.5t-81 -116t-121.5 -78t-151 -28.5z" />
    <glyph glyph-name="Odieresis" unicode="&#xd6;" horiz-adv-x="812" 
d="M202 890h184v-150h-184v150zM426 890h184v-150h-184v150zM407 192q33 0 60 13t46 34.5t29 49.5t10 59v2q0 31 -10.5 59.5t-29.5 50.5t-46 35t-61 13q-33 0 -60 -13t-46 -34.5t-29 -49.5t-10 -59v-2q0 -31 10.5 -59.5t29.5 -50.5t46 -35t61 -13zM405 -15q-81 0 -150.5 28
t-121 77t-80.5 115.5t-29 142.5v2q0 76 29.5 142.5t81 116t121.5 78t151 28.5t150.5 -28t121 -77t80.5 -115.5t29 -142.5v-2q0 -76 -29.5 -142.5t-81 -116t-121.5 -78t-151 -28.5z" />
    <glyph glyph-name="Oslash" unicode="&#xd8;" horiz-adv-x="812" 
d="M407 187q34 0 62 13t47 35.5t29.5 51.5t10.5 61v2q0 37 -14 71l-199 -220q30 -14 64 -14zM468 499q-28 14 -63 14t-62.5 -13t-46.5 -35.5t-29.5 -51.5t-10.5 -61v-2q0 -36 14 -72zM405 -15q-57 0 -108 14t-95 40l-39 -44h-147l101 112q-44 48 -68.5 109.5t-24.5 131.5v2
q0 76 29.5 142.5t81 116t121.5 78t151 28.5q57 0 108 -14t95 -40l39 44h147l-101 -113q44 -48 68.5 -109t24.5 -131v-2q0 -76 -29.5 -142.5t-81 -116t-121.5 -78t-151 -28.5z" />
    <glyph glyph-name="Ugrave" unicode="&#xd9;" horiz-adv-x="760" 
d="M150 870l221 57l96 -192h-152zM378 -14q-78 0 -141.5 18.5t-108.5 58.5t-69.5 102t-24.5 149v386h238v-383q0 -65 30.5 -94.5t77.5 -29.5q48 0 78 27.5t30 91.5v388h238v-381q0 -90 -25 -153t-70.5 -103t-110 -58.5t-142.5 -18.5z" />
    <glyph glyph-name="Uacute" unicode="&#xda;" horiz-adv-x="760" 
d="M389 927l221 -57l-165 -135h-152zM378 -14q-78 0 -141.5 18.5t-108.5 58.5t-69.5 102t-24.5 149v386h238v-383q0 -65 30.5 -94.5t77.5 -29.5q48 0 78 27.5t30 91.5v388h238v-381q0 -90 -25 -153t-70.5 -103t-110 -58.5t-142.5 -18.5z" />
    <glyph glyph-name="Ucircumflex" unicode="&#xdb;" horiz-adv-x="760" 
d="M298 912h164l133 -172h-127l-89 56l-89 -56h-125zM378 -14q-78 0 -141.5 18.5t-108.5 58.5t-69.5 102t-24.5 149v386h238v-383q0 -65 30.5 -94.5t77.5 -29.5q48 0 78 27.5t30 91.5v388h238v-381q0 -90 -25 -153t-70.5 -103t-110 -58.5t-142.5 -18.5z" />
    <glyph glyph-name="Udieresis" unicode="&#xdc;" horiz-adv-x="760" 
d="M176 890h184v-150h-184v150zM400 890h184v-150h-184v150zM378 -14q-78 0 -141.5 18.5t-108.5 58.5t-69.5 102t-24.5 149v386h238v-383q0 -65 30.5 -94.5t77.5 -29.5q48 0 78 27.5t30 91.5v388h238v-381q0 -90 -25 -153t-70.5 -103t-110 -58.5t-142.5 -18.5z" />
    <glyph glyph-name="Yacute" unicode="&#xdd;" horiz-adv-x="730" 
d="M358 932l221 -57l-165 -135h-152zM248 248l-264 452h262l120 -230l121 230h259l-264 -449v-251h-234v248z" />
    <glyph glyph-name="Thorn" unicode="&#xde;" horiz-adv-x="690" 
d="M337 274q45 0 72.5 19.5t27.5 57.5v2q0 38 -26 57.5t-73 19.5h-64v-156h63zM40 700h234v-98h81q70 0 127.5 -15t98.5 -45t64 -76t23 -108v-2q0 -63 -23 -111t-65 -79.5t-100.5 -47.5t-129.5 -16h-76v-102h-234v700z" />
    <glyph glyph-name="germandbls" unicode="&#xdf;" horiz-adv-x="650" 
d="M314 153q46 4 72.5 22.5t26.5 48.5v2q0 31 -26.5 47t-72.5 18v102q29 11 53 34t24 57v2q0 29 -18 47.5t-41 18.5q-31 0 -51 -23t-20 -71v-458h-227v455q0 62 18 114t54.5 90t92.5 59.5t133 21.5q63 0 114 -17.5t87.5 -47.5t56 -70.5t19.5 -86.5v-2q0 -59 -34.5 -103
t-83.5 -62q25 -6 51.5 -18.5t47.5 -32.5t34.5 -48t13.5 -64v-2q0 -50 -25 -87.5t-68.5 -61.5t-103 -34.5t-127.5 -5.5v156z" />
    <glyph glyph-name="agrave" unicode="&#xe0;" horiz-adv-x="606" 
d="M85 719l221 57l96 -192h-152zM282 118q30 0 50 22.5t20 61.5v23q-10 4 -24 6.5t-28 2.5q-34 0 -52 -17.5t-18 -43.5v-2q0 -24 15 -38.5t37 -14.5zM192 -13q-39 0 -72 11t-57 32.5t-37 52.5t-13 72v2q0 82 56 126t152 44q17 0 36 -1.5t36.5 -4.5t32.5 -6.5t24 -7.5v9
q0 38 -24 58.5t-77 20.5q-42 0 -78.5 -8.5t-72.5 -22.5l-40 151q48 18 103 29t127 11q84 0 139.5 -17.5t91.5 -53.5q31 -31 44 -72t13 -101v-311h-227v55q-29 -31 -67.5 -49.5t-89.5 -18.5z" />
    <glyph glyph-name="aacute" unicode="&#xe1;" horiz-adv-x="606" 
d="M300 776l221 -57l-165 -135h-152zM282 118q30 0 50 22.5t20 61.5v23q-10 4 -24 6.5t-28 2.5q-34 0 -52 -17.5t-18 -43.5v-2q0 -24 15 -38.5t37 -14.5zM192 -13q-39 0 -72 11t-57 32.5t-37 52.5t-13 72v2q0 82 56 126t152 44q17 0 36 -1.5t36.5 -4.5t32.5 -6.5t24 -7.5v9
q0 38 -24 58.5t-77 20.5q-42 0 -78.5 -8.5t-72.5 -22.5l-40 151q48 18 103 29t127 11q84 0 139.5 -17.5t91.5 -53.5q31 -31 44 -72t13 -101v-311h-227v55q-29 -31 -67.5 -49.5t-89.5 -18.5z" />
    <glyph glyph-name="acircumflex" unicode="&#xe2;" horiz-adv-x="606" 
d="M217 752h164l133 -172h-127l-89 56l-89 -56h-125zM282 118q30 0 50 22.5t20 61.5v23q-10 4 -24 6.5t-28 2.5q-34 0 -52 -17.5t-18 -43.5v-2q0 -24 15 -38.5t37 -14.5zM192 -13q-39 0 -72 11t-57 32.5t-37 52.5t-13 72v2q0 82 56 126t152 44q17 0 36 -1.5t36.5 -4.5
t32.5 -6.5t24 -7.5v9q0 38 -24 58.5t-77 20.5q-42 0 -78.5 -8.5t-72.5 -22.5l-40 151q48 18 103 29t127 11q84 0 139.5 -17.5t91.5 -53.5q31 -31 44 -72t13 -101v-311h-227v55q-29 -31 -67.5 -49.5t-89.5 -18.5z" />
    <glyph glyph-name="atilde" unicode="&#xe3;" horiz-adv-x="606" 
d="M85 600q15 86 44 122.5t80 36.5q22 0 46 -6t46 -13.5t40.5 -13.5t29.5 -6q19 0 27.5 10.5t17.5 33.5l101 -25q-15 -86 -44 -122.5t-80 -36.5q-22 0 -46 6t-46 13.5t-40.5 13.5t-29.5 6q-19 0 -27.5 -10.5t-17.5 -33.5zM282 118q30 0 50 22.5t20 61.5v23q-10 4 -24 6.5
t-28 2.5q-34 0 -52 -17.5t-18 -43.5v-2q0 -24 15 -38.5t37 -14.5zM192 -13q-39 0 -72 11t-57 32.5t-37 52.5t-13 72v2q0 82 56 126t152 44q17 0 36 -1.5t36.5 -4.5t32.5 -6.5t24 -7.5v9q0 38 -24 58.5t-77 20.5q-42 0 -78.5 -8.5t-72.5 -22.5l-40 151q48 18 103 29t127 11
q84 0 139.5 -17.5t91.5 -53.5q31 -31 44 -72t13 -101v-311h-227v55q-29 -31 -67.5 -49.5t-89.5 -18.5z" />
    <glyph glyph-name="adieresis" unicode="&#xe4;" horiz-adv-x="606" 
d="M95 734h184v-150h-184v150zM319 734h184v-150h-184v150zM282 118q30 0 50 22.5t20 61.5v23q-10 4 -24 6.5t-28 2.5q-34 0 -52 -17.5t-18 -43.5v-2q0 -24 15 -38.5t37 -14.5zM192 -13q-39 0 -72 11t-57 32.5t-37 52.5t-13 72v2q0 82 56 126t152 44q17 0 36 -1.5t36.5 -4.5
t32.5 -6.5t24 -7.5v9q0 38 -24 58.5t-77 20.5q-42 0 -78.5 -8.5t-72.5 -22.5l-40 151q48 18 103 29t127 11q84 0 139.5 -17.5t91.5 -53.5q31 -31 44 -72t13 -101v-311h-227v55q-29 -31 -67.5 -49.5t-89.5 -18.5z" />
    <glyph glyph-name="aring" unicode="&#xe5;" horiz-adv-x="606" 
d="M299 656q29 0 50 20.5t21 49.5v2q0 29 -21 49.5t-50 20.5t-50 -20.5t-21 -49.5v-2q0 -29 21 -49.5t50 -20.5zM299 590q-29 0 -55 11t-45.5 29.5t-31.5 43.5t-12 53v2q0 28 12 52.5t31.5 43t45.5 29t55 10.5q28 0 54.5 -10.5t46 -29t31.5 -43t12 -52.5v-2q0 -28 -12 -53
t-31.5 -43.5t-46 -29.5t-54.5 -11zM282 118q30 0 50 22.5t20 61.5v23q-10 4 -24 6.5t-28 2.5q-34 0 -52 -17.5t-18 -43.5v-2q0 -24 15 -38.5t37 -14.5zM192 -13q-39 0 -72 11t-57 32.5t-37 52.5t-13 72v2q0 82 56 126t152 44q17 0 36 -1.5t36.5 -4.5t32.5 -6.5t24 -7.5v9
q0 38 -24 58.5t-77 20.5q-42 0 -78.5 -8.5t-72.5 -22.5l-40 151q48 18 103 29t127 11q84 0 139.5 -17.5t91.5 -53.5q31 -31 44 -72t13 -101v-311h-227v55q-29 -31 -67.5 -49.5t-89.5 -18.5z" />
    <glyph glyph-name="ae" unicode="&#xe6;" horiz-adv-x="929" 
d="M287 120q21 0 41.5 10t40.5 27q-13 31 -18 68q-10 4 -23.5 6.5t-27.5 2.5q-34 0 -52 -17.5t-18 -43.5v-2q0 -24 16 -37.5t41 -13.5zM706 320q-4 39 -25 60.5t-51 21.5q-29 0 -48 -22t-24 -60h148zM212 -13q-39 0 -75 10t-63.5 30.5t-44 52t-16.5 75.5v2q0 82 56 126
t152 44q17 0 36 -1.5t36.5 -4.5t32.5 -6.5t24 -7.5v9q0 38 -24 58.5t-77 20.5q-42 0 -78.5 -8.5t-72.5 -22.5l-40 151q48 18 103 29t127 11q66 0 109.5 -13.5t74.5 -39.5q32 27 72.5 42t89.5 15q70 0 122.5 -23.5t87 -64.5t52 -96t17.5 -117v-19t-1 -19h-351
q12 -36 39 -54.5t64 -18.5q31 0 57.5 14t53.5 42l122 -97q-41 -53 -100.5 -86t-148.5 -33q-69 0 -125 21t-95 60q-49 -38 -104 -59.5t-112 -21.5z" />
    <glyph glyph-name="ccedilla" unicode="&#xe7;" horiz-adv-x="567" 
d="M129 -98l80 99q-43 15 -78.5 41.5t-60.5 62t-39 77.5t-14 88v2q0 57 21.5 109t60.5 91.5t94 62.5t122 23q91 0 153 -42t94 -109l-163 -92q-14 26 -33 40.5t-47 14.5q-36 0 -60 -27.5t-24 -68.5v-2q0 -43 23.5 -70.5t57.5 -27.5q30 0 49 14.5t36 40.5l165 -94
q-32 -60 -84 -98.5t-130 -47.5l-49 -162z" />
    <glyph glyph-name="egrave" unicode="&#xe8;" horiz-adv-x="598" 
d="M73 719l221 57l96 -192h-152zM375 320q-4 39 -25 60.5t-51 21.5q-29 0 -48 -22t-24 -60h148zM317 -13q-67 0 -122.5 20.5t-95 57.5t-61 89t-21.5 116v2q0 61 21 113.5t58 91t88.5 60.5t113.5 22q73 0 126.5 -23.5t88.5 -64.5t52 -96t17 -117v-19t-1 -19h-351
q12 -36 39 -54.5t64 -18.5q31 0 57.5 14t53.5 42l122 -97q-41 -53 -100.5 -86t-148.5 -33z" />
    <glyph glyph-name="eacute" unicode="&#xe9;" horiz-adv-x="598" 
d="M306 776l221 -57l-165 -135h-152zM375 320q-4 39 -25 60.5t-51 21.5q-29 0 -48 -22t-24 -60h148zM317 -13q-67 0 -122.5 20.5t-95 57.5t-61 89t-21.5 116v2q0 61 21 113.5t58 91t88.5 60.5t113.5 22q73 0 126.5 -23.5t88.5 -64.5t52 -96t17 -117v-19t-1 -19h-351
q12 -36 39 -54.5t64 -18.5q31 0 57.5 14t53.5 42l122 -97q-41 -53 -100.5 -86t-148.5 -33z" />
    <glyph glyph-name="ecircumflex" unicode="&#xea;" horiz-adv-x="598" 
d="M218 748h164l133 -172h-127l-89 56l-89 -56h-125zM375 320q-4 39 -25 60.5t-51 21.5q-29 0 -48 -22t-24 -60h148zM317 -13q-67 0 -122.5 20.5t-95 57.5t-61 89t-21.5 116v2q0 61 21 113.5t58 91t88.5 60.5t113.5 22q73 0 126.5 -23.5t88.5 -64.5t52 -96t17 -117v-19
t-1 -19h-351q12 -36 39 -54.5t64 -18.5q31 0 57.5 14t53.5 42l122 -97q-41 -53 -100.5 -86t-148.5 -33z" />
    <glyph glyph-name="edieresis" unicode="&#xeb;" horiz-adv-x="598" 
d="M96 730h184v-150h-184v150zM320 730h184v-150h-184v150zM375 320q-4 39 -25 60.5t-51 21.5q-29 0 -48 -22t-24 -60h148zM317 -13q-67 0 -122.5 20.5t-95 57.5t-61 89t-21.5 116v2q0 61 21 113.5t58 91t88.5 60.5t113.5 22q73 0 126.5 -23.5t88.5 -64.5t52 -96t17 -117
v-19t-1 -19h-351q12 -36 39 -54.5t64 -18.5q31 0 57.5 14t53.5 42l122 -97q-41 -53 -100.5 -86t-148.5 -33z" />
    <glyph glyph-name="igrave" unicode="&#xec;" horiz-adv-x="299" 
d="M-75 715l221 57l96 -192h-152zM36 546h227v-546h-227v546z" />
    <glyph glyph-name="iacute" unicode="&#xed;" horiz-adv-x="299" 
d="M156 772l221 -57l-165 -135h-152zM36 546h227v-546h-227v546z" />
    <glyph glyph-name="icircumflex" unicode="&#xee;" horiz-adv-x="299" 
d="M69 752h164l133 -172h-127l-89 56l-89 -56h-125zM36 546h227v-546h-227v546z" />
    <glyph glyph-name="idieresis" unicode="&#xef;" horiz-adv-x="299" 
d="M-53 730h184v-150h-184v150zM171 730h184v-150h-184v150zM36 546h227v-546h-227v546z" />
    <glyph glyph-name="eth" unicode="&#xf0;" horiz-adv-x="664" 
d="M325 176q40 0 61.5 22t21.5 51v2q0 30 -23.5 53t-61.5 23q-40 0 -61.5 -22.5t-21.5 -51.5v-2q0 -30 23.5 -52.5t61.5 -22.5zM323 -13q-67 0 -122.5 20t-95 55.5t-61.5 83t-22 103.5v2q0 42 17 81t48.5 69.5t77.5 48.5t105 18q29 0 56 -6.5t37 -15.5l-73 99l-117 -41
l-74 102l120 35l-65 89h232l19 -28l98 34l74 -102l-104 -30l46 -66q29 -42 49.5 -76t33 -66t18.5 -65t6 -73v-2q0 -57 -22 -106.5t-62 -85.5t-96 -56.5t-123 -20.5z" />
    <glyph glyph-name="ntilde" unicode="&#xf1;" horiz-adv-x="645" 
d="M111 600q15 86 44 122.5t80 36.5q22 0 46 -6t46 -13.5t40.5 -13.5t29.5 -6q19 0 27.5 10.5t17.5 33.5l101 -25q-15 -86 -44 -122.5t-80 -36.5q-22 0 -46 6t-46 13.5t-40.5 13.5t-29.5 6q-19 0 -27.5 -10.5t-17.5 -33.5zM34 546h227v-76q13 17 30 33t38 28.5t45.5 20
t53.5 7.5q87 0 137 -53t50 -146v-360h-227v287q0 35 -18 54.5t-44 19.5t-45.5 -19.5t-19.5 -54.5v-287h-227v546z" />
    <glyph glyph-name="ograve" unicode="&#xf2;" horiz-adv-x="648" 
d="M95 719l221 57l96 -192h-152zM325 176q38 0 63 28t25 67v2q0 41 -26 69t-64 28t-63 -28t-25 -67v-2q0 -41 26 -69t64 -28zM323 -13q-67 0 -123.5 22.5t-97 61.5t-63 90.5t-22.5 109.5v2q0 58 23 110t63.5 91t97 62t124.5 23q67 0 123.5 -22.5t97 -61.5t63 -90.5
t22.5 -109.5v-2q0 -58 -23 -110t-63.5 -91t-97.5 -62t-124 -23z" />
    <glyph glyph-name="oacute" unicode="&#xf3;" horiz-adv-x="648" 
d="M332 776l221 -57l-165 -135h-152zM325 176q38 0 63 28t25 67v2q0 41 -26 69t-64 28t-63 -28t-25 -67v-2q0 -41 26 -69t64 -28zM323 -13q-67 0 -123.5 22.5t-97 61.5t-63 90.5t-22.5 109.5v2q0 58 23 110t63.5 91t97 62t124.5 23q67 0 123.5 -22.5t97 -61.5t63 -90.5
t22.5 -109.5v-2q0 -58 -23 -110t-63.5 -91t-97.5 -62t-124 -23z" />
    <glyph glyph-name="ocircumflex" unicode="&#xf4;" horiz-adv-x="648" 
d="M242 748h164l133 -172h-127l-89 56l-89 -56h-125zM325 176q38 0 63 28t25 67v2q0 41 -26 69t-64 28t-63 -28t-25 -67v-2q0 -41 26 -69t64 -28zM323 -13q-67 0 -123.5 22.5t-97 61.5t-63 90.5t-22.5 109.5v2q0 58 23 110t63.5 91t97 62t124.5 23q67 0 123.5 -22.5
t97 -61.5t63 -90.5t22.5 -109.5v-2q0 -58 -23 -110t-63.5 -91t-97.5 -62t-124 -23z" />
    <glyph glyph-name="otilde" unicode="&#xf5;" horiz-adv-x="648" 
d="M108 600q15 86 44 122.5t80 36.5q22 0 46 -6t46 -13.5t40.5 -13.5t29.5 -6q19 0 27.5 10.5t17.5 33.5l101 -25q-15 -86 -44 -122.5t-80 -36.5q-22 0 -46 6t-46 13.5t-40.5 13.5t-29.5 6q-19 0 -27.5 -10.5t-17.5 -33.5zM325 176q38 0 63 28t25 67v2q0 41 -26 69t-64 28
t-63 -28t-25 -67v-2q0 -41 26 -69t64 -28zM323 -13q-67 0 -123.5 22.5t-97 61.5t-63 90.5t-22.5 109.5v2q0 58 23 110t63.5 91t97 62t124.5 23q67 0 123.5 -22.5t97 -61.5t63 -90.5t22.5 -109.5v-2q0 -58 -23 -110t-63.5 -91t-97.5 -62t-124 -23z" />
    <glyph glyph-name="odieresis" unicode="&#xf6;" horiz-adv-x="648" 
d="M120 730h184v-150h-184v150zM344 730h184v-150h-184v150zM325 176q38 0 63 28t25 67v2q0 41 -26 69t-64 28t-63 -28t-25 -67v-2q0 -41 26 -69t64 -28zM323 -13q-67 0 -123.5 22.5t-97 61.5t-63 90.5t-22.5 109.5v2q0 58 23 110t63.5 91t97 62t124.5 23q67 0 123.5 -22.5
t97 -61.5t63 -90.5t22.5 -109.5v-2q0 -58 -23 -110t-63.5 -91t-97.5 -62t-124 -23z" />
    <glyph glyph-name="oslash" unicode="&#xf8;" horiz-adv-x="648" 
d="M325 165q21 0 39.5 8.5t31.5 23t20.5 33.5t7.5 41v2q0 19 -4 34l-127 -138q8 -2 16 -3t16 -1zM357 376q-17 5 -34 5q-21 0 -39.5 -8.5t-31.5 -23t-20.5 -33.5t-7.5 -41v-2q0 -20 4 -35zM323 -13q-45 0 -84.5 10t-74.5 29l-29 -31h-133l86 92q-34 38 -52.5 84.5
t-18.5 99.5v2q0 58 23 110t63.5 91t97 62t124.5 23q90 0 159 -40l29 32h133l-85 -92q33 -38 51.5 -84.5t18.5 -99.5v-2q0 -58 -23 -110t-63.5 -91t-97.5 -62t-124 -23z" />
    <glyph glyph-name="ugrave" unicode="&#xf9;" horiz-adv-x="645" 
d="M109 715l221 57l96 -192h-152zM217 -13q-87 0 -137 53t-50 146v360h227v-287q0 -35 18 -54.5t44 -19.5t45.5 19.5t19.5 54.5v287h227v-546h-227v73q-26 -34 -67.5 -60t-99.5 -26z" />
    <glyph glyph-name="uacute" unicode="&#xfa;" horiz-adv-x="645" 
d="M314 772l221 -57l-165 -135h-152zM217 -13q-87 0 -137 53t-50 146v360h227v-287q0 -35 18 -54.5t44 -19.5t45.5 19.5t19.5 54.5v287h227v-546h-227v73q-26 -34 -67.5 -60t-99.5 -26z" />
    <glyph glyph-name="ucircumflex" unicode="&#xfb;" horiz-adv-x="645" 
d="M240 752h164l133 -172h-127l-89 56l-89 -56h-125zM217 -13q-87 0 -137 53t-50 146v360h227v-287q0 -35 18 -54.5t44 -19.5t45.5 19.5t19.5 54.5v287h227v-546h-227v73q-26 -34 -67.5 -60t-99.5 -26z" />
    <glyph glyph-name="udieresis" unicode="&#xfc;" horiz-adv-x="645" 
d="M118 730h184v-150h-184v150zM342 730h184v-150h-184v150zM217 -13q-87 0 -137 53t-50 146v360h227v-287q0 -35 18 -54.5t44 -19.5t45.5 19.5t19.5 54.5v287h227v-546h-227v73q-26 -34 -67.5 -60t-99.5 -26z" />
    <glyph glyph-name="yacute" unicode="&#xfd;" horiz-adv-x="652" 
d="M318 772l221 -57l-165 -135h-152zM225 -163q-60 0 -112.5 15.5t-98.5 41.5l66 155q31 -17 57.5 -26.5t42.5 -9.5q21 0 37 8l-214 525h235l95 -288l87 288h231l-189 -508q-20 -54 -41.5 -92t-49.5 -62t-63.5 -35.5t-82.5 -11.5z" />
    <glyph glyph-name="thorn" unicode="&#xfe;" horiz-adv-x="676" 
d="M347 174q39 0 65 28t26 70v2q0 42 -26 70t-65 28t-65 -28t-26 -70v-2q0 -20 7 -38t19 -31.5t28.5 -21t36.5 -7.5zM34 730h227v-251q14 15 29.5 29.5t34.5 25.5t43 18t55 7q49 0 92 -20.5t75 -58t50 -89t18 -114.5v-2q0 -65 -18.5 -118t-50 -91t-74 -58.5t-90.5 -20.5
q-62 0 -100 23t-64 52v-222h-227v890z" />
    <glyph glyph-name="ydieresis" unicode="&#xff;" horiz-adv-x="652" 
d="M119 730h184v-150h-184v150zM343 730h184v-150h-184v150zM225 -163q-60 0 -112.5 15.5t-98.5 41.5l66 155q31 -17 57.5 -26.5t42.5 -9.5q21 0 37 8l-214 525h235l95 -288l87 288h231l-189 -508q-20 -54 -41.5 -92t-49.5 -62t-63.5 -35.5t-82.5 -11.5z" />
    <glyph glyph-name="dotlessi" unicode="&#x131;" horiz-adv-x="299" 
d="M36 546h227v-546h-227v546z" />
    <glyph glyph-name="Lslash" unicode="&#x141;" horiz-adv-x="669" 
d="M100 228l-77 -22v203l77 22v269h234v-200l162 47v-203l-162 -47v-97h324v-200h-558v228z" />
    <glyph glyph-name="lslash" unicode="&#x142;" horiz-adv-x="439" 
d="M106 248l-88 -25v197l88 25v285h227v-222l88 25v-198l-88 -25v-310h-227v248z" />
    <glyph glyph-name="OE" unicode="&#x152;" horiz-adv-x="1080" 
d="M475 198v304h-44q-77 0 -124 -37t-47 -114v-2q0 -75 47 -113t124 -38h44zM441 0q-104 0 -182.5 24.5t-130.5 69.5t-78 108.5t-26 141.5v2q0 78 26.5 143t80 112t133 73t185.5 26h603v-192h-347v-71h322v-169h-322v-76h352v-192h-616z" />
    <glyph glyph-name="oe" unicode="&#x153;" horiz-adv-x="994" 
d="M325 176q38 0 63 28t25 67v2q0 41 -26 69t-64 28t-63 -28t-25 -67v-2q0 -41 26 -69t64 -28zM771 320q-4 39 -25 60.5t-51 21.5q-29 0 -48 -22t-24 -60h148zM318 -13q-65 0 -120.5 22.5t-95.5 61.5t-62.5 90.5t-22.5 109.5v2q0 58 22.5 110t63 91t96 62t121.5 23
q62 0 112 -19t87 -54q34 35 80 54t100 19q70 0 122.5 -23.5t87 -64.5t52 -96t17.5 -117v-19t-1 -19h-351q12 -36 39 -54.5t64 -18.5q31 0 57.5 14t53.5 42l122 -97q-41 -53 -99.5 -86t-144.5 -33q-128 0 -202 71q-37 -33 -87 -52t-111 -19z" />
    <glyph glyph-name="Scaron" unicode="&#x160;" horiz-adv-x="664" 
d="M108 912h127l89 -56l89 56h125l-133 -172h-164zM341 -13q-107 0 -199.5 29.5t-159.5 88.5l125 149q57 -44 120 -63t125 -19q32 0 46 8t14 22v2q0 15 -20.5 25t-76.5 21q-59 12 -112.5 28t-94 41t-64.5 62.5t-24 93.5v2q0 50 19.5 93t57 75t93 50t127.5 18
q102 0 178.5 -24t137.5 -72l-114 -158q-50 36 -105.5 52.5t-104.5 16.5q-26 0 -38.5 -8t-12.5 -21v-2q0 -7 4 -13t14.5 -11.5t28.5 -10.5t46 -10q67 -12 122 -29t94.5 -43.5t61 -63.5t21.5 -90v-2q0 -55 -22 -99t-62 -74.5t-97.5 -47t-127.5 -16.5z" />
    <glyph glyph-name="scaron" unicode="&#x161;" horiz-adv-x="525" 
d="M48 752h127l89 -56l89 56h125l-133 -172h-164zM275 -13q-80 0 -150.5 20t-129.5 59l77 129q50 -31 102.5 -46t99.5 -15q33 0 33 18v2q0 8 -12 14.5t-53 17.5q-52 13 -93 27.5t-70 35t-44.5 50t-15.5 71.5v2q0 45 17 80t48.5 58.5t75.5 36t97 12.5q68 0 131.5 -16.5
t113.5 -46.5l-72 -135q-44 24 -91.5 37.5t-82.5 13.5q-32 0 -32 -17v-2q0 -8 13 -15t54 -17q52 -13 93 -27.5t69.5 -35.5t43.5 -50t15 -71v-2q0 -90 -62.5 -139t-174.5 -49z" />
    <glyph glyph-name="Ydieresis" unicode="&#x178;" horiz-adv-x="730" 
d="M161 890h184v-150h-184v150zM385 890h184v-150h-184v150zM248 248l-264 452h262l120 -230l121 230h259l-264 -449v-251h-234v248z" />
    <glyph glyph-name="Zcaron" unicode="&#x17d;" horiz-adv-x="688" 
d="M135 912h127l89 -56l89 56h125l-133 -172h-164zM18 164l317 344h-305v192h641v-164l-317 -344h317v-192h-653v164z" />
    <glyph glyph-name="zcaron" unicode="&#x17e;" horiz-adv-x="563" 
d="M63 752h127l89 -56l89 56h125l-133 -172h-164zM15 142l222 226h-213v178h527v-142l-223 -226h223v-178h-536v142z" />
    <glyph glyph-name="florin" unicode="&#x192;" horiz-adv-x="569" 
d="M122 -15q-27 0 -53.5 3.5t-58.5 11.5v152q18 -5 31 -6.5t26 -1.5q32 0 46 15t21 54l18 102h-55v161h84l11 58q17 98 80 139.5t167 41.5q33 0 65 -4t55 -11v-152q-17 4 -35 6t-30 2q-38 0 -56.5 -13.5t-24.5 -45.5l-4 -21h114v-161h-143l-23 -129q-10 -55 -27.5 -93.5
t-45.5 -62.5t-68 -34.5t-94 -10.5z" />
    <glyph glyph-name="circumflex" unicode="&#x2c6;" 
d="M168 752h164l133 -172h-127l-89 56l-89 -56h-125z" />
    <glyph glyph-name="caron" unicode="&#x2c7;" 
d="M35 752h127l89 -56l89 56h125l-133 -172h-164z" />
    <glyph glyph-name="breve" unicode="&#x2d8;" 
d="M250 578q-88 0 -143 45t-63 129h120q9 -26 28.5 -41t57.5 -15t57.5 15t28.5 41h120q-8 -84 -63 -129t-143 -45z" />
    <glyph glyph-name="dotaccent" unicode="&#x2d9;" 
d="M156 730h188v-150h-188v150z" />
    <glyph glyph-name="ring" unicode="&#x2da;" 
d="M250 656q29 0 50 20.5t21 49.5v2q0 29 -21 49.5t-50 20.5t-50 -20.5t-21 -49.5v-2q0 -29 21 -49.5t50 -20.5zM250 590q-29 0 -55 11t-45.5 29.5t-31.5 43.5t-12 53v2q0 28 12 52.5t31.5 43t45.5 29t55 10.5q28 0 54.5 -10.5t46 -29t31.5 -43t12 -52.5v-2q0 -28 -12 -53
t-31.5 -43.5t-46 -29.5t-54.5 -11z" />
    <glyph glyph-name="ogonek" unicode="&#x2db;" 
d="M390 -164q-122 -15 -183 14.5t-61 88.5q0 16 4.5 33.5t17.5 37.5h139q-5 -13 -5 -29q0 -22 21.5 -36t66.5 -13v-96z" />
    <glyph glyph-name="tilde" unicode="&#x2dc;" 
d="M34 600q15 86 44 122.5t80 36.5q22 0 46 -6t46 -13.5t40.5 -13.5t29.5 -6q19 0 27.5 10.5t17.5 33.5l101 -25q-15 -86 -44 -122.5t-80 -36.5q-22 0 -46 6t-46 13.5t-40.5 13.5t-29.5 6q-19 0 -27.5 -10.5t-17.5 -33.5z" />
    <glyph glyph-name="hungarumlaut" unicode="&#x2dd;" 
d="M98 772l177 -49l22 49l205 -57l-155 -135h-136l40 89l-102 -89h-137z" />
    <glyph glyph-name="Omega" unicode="&#x3a9;" horiz-adv-x="852" 
d="M76 371h-64v175h64q2 45 12.5 79t36.5 60q28 28 65.5 40t94.5 12q51 0 83.5 -4t55.5 -11v-142q-17 4 -34 6t-39 2q-53 0 -53 -44v-4h126v-169h-121v-371h-227v371zM502 371h-64v169h64q1 47 12 83t37 62q28 28 65.5 40t94.5 12q51 0 83.5 -4t55.5 -11v-142q-17 4 -34 6
t-39 2q-53 0 -53 -44v-4h126v-169h-121v-371h-227v371z" />
    <glyph glyph-name="Omega" unicode="&#x2126;" horiz-adv-x="852" 
d="M76 371h-64v175h64q2 45 12.5 79t36.5 60q28 28 65.5 40t94.5 12q51 0 83.5 -4t55.5 -11v-142q-17 4 -34 6t-39 2q-53 0 -53 -44v-4h126v-169h-121v-371h-227v371zM502 371h-64v169h64q1 47 12 83t37 62q28 28 65.5 40t94.5 12q51 0 83.5 -4t55.5 -11v-142q-17 4 -34 6
t-39 2q-53 0 -53 -44v-4h126v-169h-121v-371h-227v371z" />
    <glyph glyph-name="pi" unicode="&#x3c0;" horiz-adv-x="830" 
d="M427 360q25 0 40 11t15 31v2q0 21 -14 31.5t-40 10.5h-35v-86h34zM264 549h173q78 0 125 -34.5t47 -103.5v-2q0 -34 -12.5 -60.5t-35.5 -44.5t-55 -27t-71 -9h-42v-104h-129v385zM414 25q69 0 127.5 26t101.5 70t67.5 103.5t24.5 125.5v2q0 66 -24.5 125t-67 103
t-101 69.5t-126.5 25.5q-69 0 -127.5 -26t-101.5 -70t-67.5 -103.5t-24.5 -125.5v-2q0 -66 24 -125t67 -103t101.5 -69.5t126.5 -25.5zM414 -15q-76 0 -142 29t-114.5 78.5t-76.5 115.5t-28 140v2q0 74 28 140t77 116t115.5 79.5t142.5 29.5t142 -29t114.5 -78.5
t76.5 -115.5t28 -140v-2q0 -74 -28 -140t-77 -116t-115.5 -79.5t-142.5 -29.5z" />
    <glyph glyph-name="endash" unicode="&#x2013;" horiz-adv-x="528" 
d="M30 406h468v-182h-468v182z" />
    <glyph glyph-name="emdash" unicode="&#x2014;" horiz-adv-x="898" 
d="M30 406h838v-182h-838v182z" />
    <glyph glyph-name="quoteleft" unicode="&#x2018;" horiz-adv-x="282" 
d="M23 486q0 61 17 102.5t47 66.5t71 36.5t90 13.5l18 -83q-49 -6 -75.5 -28.5t-26.5 -60.5h91v-230h-232v183z" />
    <glyph glyph-name="quoteright" unicode="&#x2019;" horiz-adv-x="282" 
d="M16 381q49 6 75.5 28.5t26.5 60.5h-91v230h232v-183q0 -62 -17 -103t-47 -66t-71 -36.5t-90 -13.5z" />
    <glyph glyph-name="quotesinglbase" unicode="&#x201a;" horiz-adv-x="282" 
d="M14 -89q49 6 75.5 28.5t26.5 60.5h-91v230h232v-183q0 -62 -17 -103t-47 -66t-71 -36.5t-90 -13.5z" />
    <glyph glyph-name="quotedblleft" unicode="&#x201c;" horiz-adv-x="554" 
d="M23 486q0 60 16 100.5t45 66t69.5 38t89.5 14.5l18 -83q-97 -12 -97 -89h86v-230h-227v183zM300 486q0 60 16 100.5t45 66t69.5 38t89.5 14.5l18 -83q-97 -12 -97 -89h86v-230h-227v183z" />
    <glyph glyph-name="quotedblright" unicode="&#x201d;" horiz-adv-x="554" 
d="M16 381q97 12 97 89h-86v230h227v-183q0 -60 -16 -100.5t-45 -66t-69.5 -38t-89.5 -14.5zM293 381q97 12 97 89h-86v230h227v-183q0 -60 -16 -100.5t-45 -66t-69.5 -38t-89.5 -14.5z" />
    <glyph glyph-name="quotedblbase" unicode="&#x201e;" horiz-adv-x="552" 
d="M14 -89q97 12 97 89h-86v230h227v-183q0 -60 -16 -100.5t-45 -66t-69.5 -38t-89.5 -14.5zM291 -89q97 12 97 89h-86v230h227v-183q0 -60 -16 -100.5t-45 -66t-69.5 -38t-89.5 -14.5z" />
    <glyph glyph-name="dagger" unicode="&#x2020;" horiz-adv-x="410" 
d="M158 478l-130 -15v123l129 -15l-18 129h132l-18 -129l129 15v-123l-130 15l10 -270h-114z" />
    <glyph glyph-name="daggerdbl" unicode="&#x2021;" horiz-adv-x="430" 
d="M167 129l-129 -15v123l132 -15l-17 128l17 128l-132 -15v123l129 -15l-18 129h132l-18 -129l129 15v-123l-132 15l17 -128l-17 -128l132 15v-123l-129 15l18 -129h-132z" />
    <glyph glyph-name="bullet" unicode="&#x2022;" 
d="M250 163q-39 0 -73.5 15t-60 40.5t-40.5 59.5t-15 73v2q0 39 15 73t40.5 59.5t60 40.5t73.5 15t73.5 -15t60 -40.5t40.5 -59.5t15 -73v-2q0 -39 -15 -73t-40.5 -59.5t-60 -40.5t-73.5 -15z" />
    <glyph glyph-name="ellipsis" unicode="&#x2026;" horiz-adv-x="840" 
d="M25 228h228v-228h-228v228zM306 228h228v-228h-228v228zM587 228h228v-228h-228v228z" />
    <glyph glyph-name="perthousand" unicode="&#x2030;" horiz-adv-x="1349" 
d="M721 116q20 0 36 18.5t16 50.5v2q0 32 -15.5 50.5t-36.5 18.5q-22 0 -37 -18.5t-15 -50.5v-2q0 -32 16 -50.5t36 -18.5zM1133 116q20 0 36 18.5t16 50.5v2q0 32 -15.5 50.5t-36.5 18.5q-22 0 -37 -18.5t-15 -50.5v-2q0 -32 16 -50.5t36 -18.5zM216 444q20 0 36 18.5
t16 50.5v2q0 32 -15.5 50.5t-36.5 18.5q-22 0 -37 -18.5t-15 -50.5v-2q0 -32 16 -50.5t36 -18.5zM721 -11q-43 0 -78 15.5t-60 42.5t-39 62.5t-14 75.5v2q0 40 13.5 75.5t38 62.5t60 42.5t79.5 15.5t79.5 -15.5t60 -42.5t38 -62.5t13.5 -75.5v-2q0 -40 -14 -75.5t-39 -62.5
t-60 -42.5t-78 -15.5zM1133 -11q-43 0 -78 15.5t-60 42.5t-39 62.5t-14 75.5v2q0 40 13.5 75.5t38 62.5t60 42.5t79.5 15.5t79.5 -15.5t60 -42.5t38 -62.5t13.5 -75.5v-2q0 -40 -14 -75.5t-39 -62.5t-60 -42.5t-78 -15.5zM677 700h151l-568 -700h-151zM216 317
q-43 0 -78 15.5t-60 42.5t-39 62.5t-14 75.5v2q0 40 13.5 75.5t38 62.5t60 42.5t79.5 15.5t79.5 -15.5t60 -42.5t38 -62.5t13.5 -75.5v-2q0 -40 -14 -75.5t-39 -62.5t-60 -42.5t-78 -15.5z" />
    <glyph glyph-name="guilsinglleft" unicode="&#x2039;" horiz-adv-x="341" 
d="M19 224v88l153 204l156 -78l-130 -170l130 -170l-156 -78z" />
    <glyph glyph-name="guilsinglright" unicode="&#x203a;" horiz-adv-x="341" 
d="M13 98l130 170l-130 170l156 78l153 -204v-88l-153 -204z" />
    <glyph glyph-name="fraction" unicode="&#x2044;" horiz-adv-x="521" 
d="M391 758h182l-465 -856h-182z" />
    <glyph glyph-name="fraction" unicode="&#x2215;" horiz-adv-x="521" 
d="M391 758h182l-465 -856h-182z" />
    <glyph glyph-name="trademark" unicode="&#x2122;" horiz-adv-x="700" 
d="M98 612h-91v88h284v-88h-91v-220h-102v220zM324 700h107l66 -108l66 108h108v-308h-103v153l-71 -110h-1l-71 110v-153h-101v308z" />
    <glyph glyph-name="radical" unicode="&#x221a;" horiz-adv-x="1151" 
d="M888 730h227v-730h-227v730zM76 371h-64v175h64q2 45 12.5 79t36.5 60q28 28 65.5 40t94.5 12q51 0 83.5 -4t55.5 -11v-142q-17 4 -34 6t-39 2q-53 0 -53 -44v-4h126v-169h-121v-371h-227v371zM502 371h-64v169h64q1 47 12 83t37 62q28 28 65.5 40t94.5 12q51 0 83.5 -4
t55.5 -11v-142q-17 4 -34 6t-39 2q-53 0 -53 -44v-4h126v-169h-121v-371h-227v371z" />
    <glyph glyph-name="approxequal" unicode="&#x2248;" horiz-adv-x="1151" 
d="M888 546h227v-546h-227v546zM76 371h-64v175h64q2 45 12.5 79t36.5 60q28 28 65.5 40t94.5 12q51 0 83.5 -4t55.5 -11v-142q-17 4 -34 6t-39 2q-53 0 -53 -44v-4h126v-169h-121v-371h-227v371zM502 371h-64v169h64q1 47 12 83t37 62q28 28 65.5 40t94.5 12q51 0 83.5 -4
t55.5 -11v-142q-17 4 -34 6t-39 2q-53 0 -53 -44v-4h126v-169h-121v-371h-227v371zM884 730h235v-145h-235v145z" />
    <glyph glyph-name="NUL" horiz-adv-x="0" 
 />
    <glyph glyph-name="apple" horiz-adv-x="967" 
d="M417 64q0 -7 -2.5 -12t-9.5 -5q-6 0 -9 5t-3 12q0 16 12 16t12 -16zM352 64h-3q-8 0 -8 8q0 6 7 6q4 0 4 -4v-10zM553 79q4 0 0 -9q-5 9 0 9zM393 182q0 -7 -4 -7h-5q-11 0 -18.5 10t-7.5 22q0 17 14 17h6q3 -1 3.5 -1.5t2.5 -5.5zM716 187q0 -13 -11 -13q-9 0 -17 11.5
t-8 26.5q0 14 11 14q9 0 17 -11.5t8 -27.5zM275 200q-8 0 -11.5 5t-3.5 10q0 9 8 9t9 -5l3 -19h-5zM381 384q-13 0 -13 11t13 11h11v-22h-11zM684 535q0 -13 -11 -13q-9 0 -17 11.5t-8 26.5q0 14 11 14q9 0 17 -11.5t8 -27.5zM272 553q-3 -4 -7 -4t-4 2q0 3 4 3q5 0 7 -1z
M566 553q-3 -4 -7 -4t-4 2q0 3 4 3q5 0 7 -1zM171 548q-8 0 -11.5 5t-3.5 10q0 9 8 9t9 -5l3 -19h-5zM441 -88q0 13 -11 13t-11 -12q0 -13 11 -13t11 12zM800 -88q0 13 -11 13t-11 -12q0 -13 11 -13t11 12zM559 -80l-5 -12h10zM394 -83q0 8 -11 7v-13q11 0 11 6zM525 -82
q0 8 -11 6v-12q11 -1 11 6zM606 -83q0 8 -11 7v-13q11 0 11 6zM309 48q-2 0 -3 1q-3 1 -3 5v20q0 2 3 4q1 1 3 1v2h-18v-2q1 0 3 -1q3 -3 3 -4v-9q-2 0 -4 2l-8 8q-3 1 -1 3q1 1 2 1v2h-14v-2q1 0 3 -1t2.5 -1.5t2.5 -1.5l10 -9l-13 -13q-1 -1 -2 -1.5t-2 -1.5q-2 -1 -3 -2
v-2h17v2q-2 0 -3 1t1 4l8 8q2 2 4 2v-9q0 -2 -3 -5q-2 -1 -3 -1v-2h18v2zM364 48q-2 0 -3 1q-2 2 -2 4v20q0 3 2 5q1 1 3 1v2h-18q-13 0 -13 -9q0 -5 9 -9l-7 -10q-2 -2 -3.5 -2.5t-2.5 -1.5l-2 -1v-2h11l7 12q3 4 7 4v-9q0 -2 -1 -2.5t-2 -1.5t-2 -1v-2h17v2zM425 64
q0 8 -5 13t-15 5t-15 -5t-5 -13t5 -13.5t15 -5.5t15 5.5t5 13.5zM480 81h-15v-2q1 0 2 -1t-1 -4l-6 -9l-6 9q-2 2 0 4q1 1 3 1v2h-15v-2q1 0 3 -1t5 -4l8 -12v-8q0 -2 -3 -5q-1 -1 -2 -1v-2h17v2q-2 0 -3 1q-2 2 -2 5v8l8 12q1 2 2.5 2.5t2.5 1.5t2 1v2zM568 81v-2q1 0 2 -1
t0 -4l-9 -19l-5 10l4 8q1 2 2 2.5t2 1.5l2 2v2h-26l1 -2q1 0 2 -1l2 -2l3 -3l3 -5l-7 -13l-8 18q-2 3 0 5q1 1 2 1v2h-13v-2q1 0 2 -1q3 -3 4 -5l13 -27h1q1 -1 1 0l8 16l9 -16h1l12 27q1 2 2.5 3t2.5 2t2 1v2h-15zM633 48q-2 -1 -3 0q-2 0 -2 5v21q0 3 2 5h3v2h-29l-2 -10
l2 -1q0 2 2 4q2 4 7 4h4q4 0 4 -3v-10h-4q-3 0 -5 2q-1 1 -1 3h-2v-13h2q0 1 1 3q3 3 5 3h4v-11q0 -3 -4 -3h-4q-4 0 -8 4q-2 2 -2 5l-2 -1l2 -11h30v2zM694 48q-2 0 -3 1q-3 1 -3 4v20q0 2 3 4q1 1 3 2v2h-10l-24 -26v18q0 3 3 5q1 1 3 1v2h-15v-2q1 0 3 -1q3 -3 3 -5v-28
h3l25 28v-20q0 -1 -3 -4q-1 -1 -2 -1v-2h14v2zM827 133h-685v-6h685v6zM306 174q-2 0 -4 1t-3.5 2t-2.5 5l-7 35q-1 5 3 7q2 1 4 1l-1 3h-27q-20 0 -20 -15q0 -6 5.5 -10t13.5 -5l-9 -16q-2 -4 -4.5 -5t-4.5 -2q-3 -1 -5 -1l1 -3h19l12 23q1 3 5 3l3 -15q1 -5 -3 -7
q-2 -1 -4 -1l1 -3h29zM413 175q-2 -1 -4 0q-5 2 -6 9l-8 31q-3 9 8 10l-1 3h-30q-9 0 -17 -5.5t-8 -16.5q0 -16 11 -25.5t24 -9.5h32zM522 174q-1 0 -3 1q-5 2 -6 9l-7 32q-1 6 3 8q2 1 5 1l-1 3h-14l-29 -42l-5 30q-1 6 3 8q2 1 4 1l-1 3h-21l1 -3q2 0 4 -1q3 -2 5 -8
l8 -45l3 -1l30 44l6 -30q1 -7 -2 -9q-2 -1 -4 -1l1 -3h21zM620 228h-29l1 -3q2 0 4 -1q5 -2 6 -8l5 -21q2 -10 1 -15t-12 -5q-8 0 -13 6.5t-7 15.5l-4 19q-1 7 3 9q2 1 4 0v3h-24l1 -3q2 0 5 -1q5 -2 6 -8l4 -19q2 -8 8 -17.5t20 -9.5q17 0 19 8t0 16l-5 22q-2 4 -0.5 6
t3.5 3t5 0zM822 174q-2 0 -4 1t-3.5 2t-2.5 5l-7 35q-1 5 3 7q2 1 4 1l-1 3h-45v-10v-7h4q-1 3 1 6q2 7 12 7h4q5 0 6 -6l3 -16h-4q-5 0 -9 4q-2 2 -3 5h-3l5 -23h3q0 2 1 5q2 6 7 6h4l3 -17q1 -5 -3 -7q-2 -1 -4 -1l1 -3h29zM203 217q-3 5 -6.5 9t-11.5 4q-15 0 -14 -23
q-3 10 -8 16.5t-13 6.5q-5 0 -8.5 -3t-3.5 -9l3 -1q0 6 8 6q10 0 15.5 -10.5t8.5 -22.5q2 -7 1 -9.5t-3 -4.5t-4 -1l1 -4h28l-1 4q-2 -1 -4 0q-5 2 -6 9q-5 17 -5 25q0 13 9 13q5 0 7.5 -2.5l4.5 -4.5zM728 192q0 15 -11.5 26.5t-25.5 11.5q-7 0 -15 -5t-8 -17
q0 -16 11.5 -27t25.5 -11q7 0 15 5t8 17zM827 277h-685v-6h685v6zM283 341h-14v65h14v34h-141v-62h41v28h33v-20h-24v-24h24v-21h-33v28h-41v-61h141v33zM458 341h-14v65h14v34h-96q-22 0 -34.5 -11.5t-12.5 -28.5t12.5 -28.5t34.5 -11.5h30v-19h-15v-33h81v33zM648 440h-81
v-34h11l-15 -23l-15 23h10v34h-62v-34h12l37 -46v-19h-14v-33h81v33h-15v20l37 45h14v34zM827 440h-147v-62h36v28h11v-65h-14v-33h81v33h-14v65h11v-28h36v62zM827 481h-685v-6h685v6zM400 521q0 2 -3 5t-10 4q-4 3 -4.5 10.5t-2 16t-6 15t-16.5 6.5q-5 0 -9 -3.5t-4 -6.5
q0 -5 5 -5q4 0 4 6t5 6t6.5 -5t2.5 -12t3.5 -14.5t8.5 -13.5q-11 0 -14.5 -6.5t-8.5 -6.5t-5 4q0 2 1 2.5t1 2.5q0 5 -5 5t-5 -7q0 -5 5 -8.5t10 -3.5q13 0 15 6.5t10 6.5q3 -7 12 -7q4 0 4 3zM202 522q-2 0 -4 1t-3.5 2t-2.5 5l-7 35q-1 5 3 7q2 1 4 1l-1 3h-27
q-20 0 -20 -15q0 -6 5.5 -10t13.5 -5l-9 -16q-2 -4 -4.5 -5t-4.5 -2q-3 -1 -5 -1l1 -3h19l12 23q1 3 5 3l3 -15q1 -5 -3 -7q-2 -1 -4 -1l1 -3h29zM497 522q-2 0 -4 1t-3.5 2t-2.5 5l-7 35q-1 5 3 7q2 1 4 1l-1 3h-45v-10v-7h4q-1 3 1 6q2 7 12 7h4q5 0 6 -6l3 -16h-4
q-5 0 -9 4q-2 2 -3 5h-3l5 -23h3q0 2 1 5q2 6 7 6h4l3 -17q1 -5 -3 -7q-2 -1 -4 -1l1 -3h29zM820 522q-2 0 -4 1t-3.5 2t-2.5 5l-7 35q-1 5 3 7q2 1 4 1l-1 3h-28l1 -3q2 0 4 -1q4 -2 5 -7l3 -15h-24l-3 15q-1 5 3 7q2 1 4 1l-1 3h-29l1 -3q2 0 4 -1q5 -2 6 -7l7 -35
q1 -5 -3 -7q-2 -1 -4 -1l1 -3h29l-1 3q-2 0 -4 1t-3.5 2t-2.5 5l-3 16h24l3 -16q1 -5 -3 -7q-2 -1 -4 -1l1 -3h29zM295 537q0 12 -14 17q5 3 5 9q0 5 -5 10t-16 5q-13 0 -13 -11q0 -6 5 -6q4 0 4 3t-1.5 3.5t-1.5 2.5q0 5 7 5q10 0 10 -12q0 -4 -2 -6q-16 2 -16 -6
q0 -6 8 -6q6 0 11 5q6 -5 6 -15q0 -14 -12 -14t-12 9q0 3 3 3q1 0 2 -1t3 -1q4 0 4 5t-7 5q-9 0 -9 -10q0 -13 16 -13q13 0 19 5.5t6 13.5zM589 537q0 12 -14 17q5 3 5 9q0 5 -5 10t-16 5q-13 0 -13 -11q0 -6 5 -6q4 0 4 3t-1.5 3.5t-1.5 2.5q0 5 7 5q10 0 10 -12
q0 -4 -2 -6q-16 2 -16 -6q0 -6 8 -6q6 0 11 5q6 -5 6 -15q0 -14 -12 -14t-12 9q0 3 3 3q1 0 2 -1t3 -1q4 0 4 5t-7 5q-9 0 -9 -10q0 -13 16 -13q13 0 19 5.5t6 13.5zM696 540q0 15 -11.5 26.5t-25.5 11.5q-7 0 -15 -5t-8 -17q0 -16 11.5 -27t25.5 -11q7 0 15 5t8 17z
M827 624h-685v-6h685v6zM439 664q-2 -1 -3 0q-2 0 -2 5v21q0 3 2 5h3v2h-29l-2 -10l2 -1q0 2 2 4q2 4 7 4h4q4 0 4 -3v-10h-4q-3 0 -5 2q-1 1 -1 3h-2v-13h2q0 1 1 3q3 3 5 3h4v-11q0 -3 -4 -3h-4q-4 0 -8 4q-2 2 -2 5l-2 -1l2 -11h30v2zM504 664q-2 -1 -3 0q-3 0 -3 5v21
q0 3 3 5h3v2h-18v-1v-1h2q3 -3 3 -5v-9h-17v9q0 3 2 5h3v1v1h-17v-2h2q3 -3 3 -5v-21q0 -2 -1 -2.5t-2 -1.5t-2 -1v-2h17v2q-2 0 -3 1q-2 2 -2 4v10h17v-10q0 -5 -3 -5q-1 -1 -2 0v-2h18v2zM559 686v4q0 2 -0.5 4t-0.5 4q-2 -1 -17 -1t-18 1q0 -2 -0.5 -4t-0.5 -4v-4h2
q1 2 3 4q5 5 7 5q3 0 3 -3v-23q0 -5 -3 -5q-1 -1 -2 0v-2h17v2q-2 -1 -3 0q-2 0 -2 5v23q0 3 3 3t8 -5q2 -2 2 -4h2zM284 -101q0 -4 -4 -4t-4 4t4 4t4 -4zM716 -101q0 -4 -4 -4t-4 4t4 4t4 -4zM143 -105h-1l-11 23l-10 -23h-1l-12 34l6 1l7 -23l10 23h1l10 -23l7 22h6z
M199 -105h-1l-11 23l-10 -23h-1l-12 34l6 1l7 -23l10 23h1l10 -23l7 22h6zM255 -105h-1l-11 23l-10 -23h-1l-12 34l6 1l7 -23l10 23h1l10 -23l7 22h6zM323 -76h-12v-28h-6v28h-12v5h30v-5zM351 -90v-14h-6v14l-14 19l6 1l11 -15l9 14h7zM400 -82q0 -12 -17 -12v-10h-6v33
q14 2 18.5 -2t4.5 -9zM447 -87q0 -8 -4.5 -13t-12.5 -5t-12.5 5t-4.5 12q0 8 5 13t13 5q7 0 11.5 -5t4.5 -12zM491 -101q-6 -4 -13 -4q-8 0 -13 4.5t-5 12.5t5.5 13t13.5 5q6 0 12 -4l-2 -5q-4 4 -11 4q-12 0 -12 -13q0 -12 13 -12q2 0 6 2v7h-9v5h15v-15zM527 -104l-8 11
h-5v-11h-6v33q14 2 18.5 -1.5t4.5 -8.5q0 -7 -7 -10l10 -13h-7zM570 -104l-4 8h-14l-3 -8h-6l15 34h2l16 -34h-6zM612 -82q0 -12 -17 -12v-10h-6v33q14 2 18.5 -2t4.5 -9zM650 -104v15h-16v-15h-6v33h6v-13h16v13h6v-33h-6zM689 -90v-14h-6v14l-14 19l6 1l11 -15l9 14h7z
M757 -102q-3 -3 -10 -3q-18 0 -18 17q0 8 5 13t13 5q6 0 11 -3l-2 -5q-3 3 -9 3q-5 0 -8.5 -3.5t-3.5 -8.5q0 -13 13 -13q4 0 10 4zM806 -87q0 -8 -4.5 -13t-12.5 -5t-12.5 5t-4.5 12q0 8 5 13t13 5q7 0 11.5 -5t4.5 -12zM853 -104l-3 20l-10 -21h-2l-10 21l-3 -20h-6l6 34
h1l13 -26l13 26h1l6 -34h-6zM101 0v750h767v-750h-767z" />
  </font>
</defs>
</svg>
