<?xml version="1.0" standalone="no"?>
<!DOCTYPE svg PUBLIC "-//W3C//DTD SVG 1.1//EN" "http://www.w3.org/Graphics/SVG/1.1/DTD/svg11.dtd" >
<svg xmlns="http://www.w3.org/2000/svg" xmlns:xlink="http://www.w3.org/1999/xlink" version="1.1">
<metadata>
Created by FontForge 20161013 at Wed Oct 10 15:03:44 2012
 By ,,,
Copyright (c) 2012 by Yellow Desing Studio. All rights reserved.
</metadata>
<defs>
<font id="ThirstyScriptRegular" horiz-adv-x="519" >
  <font-face 
    font-family="Thirsty Script Regular"
    font-weight="400"
    font-stretch="normal"
    units-per-em="1000"
    panose-1="3 0 5 0 0 0 7 7 0 6"
    ascent="800"
    descent="-200"
    x-height="519"
    cap-height="842"
    bbox="-330.29 -367.727 1543 1077"
    underline-thickness="50"
    underline-position="-200"
    unicode-range="U+000D-FB02"
  />
<missing-glyph horiz-adv-x="500" 
 />
    <glyph glyph-name="B_r" unicode="Br" horiz-adv-x="1280" 
d="M118 160q-29 0 -48 -18.5t-19 -40.5t20 -37.5t49 -15.5q53 0 107 61q-69 51 -109 51zM525 36q73 0 111.5 55t38.5 121q0 23 -6.5 45t-25 50.5t-60.5 52t-104 37.5q-44 -112 -62 -153q-33 -79 -65 -130q97 -78 173 -78zM124 -37q-73 0 -113.5 39.5t-40.5 94.5
q0 54 39 96.5t109 42.5q67 0 155 -62q28 47 61 126l114 283q22 55 65.5 92.5t95.5 37.5l19 -63q-6 -2 -16 -7.5t-33.5 -31.5t-38.5 -62l-33 -83q82 -28 156.5 14.5t74.5 132.5q0 67 -49.5 112.5t-137.5 45.5q-63 0 -115 -24t-83 -62t-48 -81t-17 -85q0 -24 6 -48t12 -36
l5 -12l-74 -55q-35 61 -35 143q0 88 41 165t125 127t194 50q121 0 196 -70t75 -173q0 -50 -18 -89.5t-43.5 -60.5t-51.5 -35t-44 -19l-18 -4q5 -2 12.5 -7t27 -23.5t34.5 -40t27.5 -57.5t12.5 -76q0 -61 -24.5 -117.5t-80 -96.5t-131.5 -40q-60 0 -111.5 25t-122.5 80
q-79 -86 -178 -86zM787 0q-10 0 -24 15t-13 25q38 37 102.5 144t135.5 263q-31 33 -31 64q0 33 28 64.5t61 41.5l54 -38l-38 -88q7 -7 44.5 -37.5t56 -55.5t18.5 -53q0 -23 -12 -52l-45 -111q-14 -33 -20.5 -58t-6.5 -38t4.5 -20.5t9 -9.5t9.5 -2q27 0 68.5 53t105.5 162
q11 0 25 -10t18 -21q-72 -124 -127.5 -187.5t-119.5 -63.5q-31 0 -52 13t-31.5 39.5t-4 73.5t32.5 109l37 90q8 20 8 32q0 15 -10 27.5t-41 38.5q-67 -147 -134.5 -261t-107.5 -149z" />
    <glyph glyph-name="D_r" unicode="Dr" horiz-adv-x="1345" 
d="M119 236q44 0 82.5 -18.5t91.5 -62.5q36 52 66 127l114 284q22 55 65.5 92.5t95.5 37.5l19 -63q-2 -1 -6 -2.5t-14.5 -9t-21 -17.5t-23 -29t-22.5 -43q-118 -290 -118 -291q-35 -89 -79 -146q81 -62 142 -62q78 0 150.5 69.5t114.5 174.5t42 209q0 119 -59.5 193.5
t-174.5 74.5q-86 0 -154.5 -45.5t-101.5 -106.5t-33 -119q0 -24 6 -47.5t11 -35.5l6 -12l-73 -53q-37 51 -37 144q0 149 111.5 253t271.5 104q146 0 236 -93t90 -254q0 -91 -29.5 -186.5t-81 -175.5t-129.5 -131.5t-165 -51.5q-55 0 -96 20.5t-103 69.5q-81 -71 -184 -71
q-75 0 -117.5 39t-42.5 94q0 54 39.5 97t110.5 43zM130 48q58 0 110 47q-71 65 -122 65q-29 0 -48 -18.5t-19 -40.5q0 -25 21.5 -39t57.5 -14zM852 0q-10 0 -24 15t-13 25q38 37 102.5 144t135.5 263q-31 33 -31 64q0 33 28 64.5t61 41.5l54 -38l-38 -88q7 -7 44.5 -37.5
t56 -55.5t18.5 -53q0 -23 -12 -52l-45 -111q-14 -33 -20.5 -58t-6.5 -38t4.5 -20.5t9 -9.5t9.5 -2q27 0 68.5 53t105.5 162q11 0 25 -10t18 -21q-72 -124 -127.5 -187.5t-119.5 -63.5q-31 0 -52 13t-31.5 39.5t-4 73.5t32.5 109l37 90q8 20 8 32q0 15 -10 27.5t-41 38.5
q-67 -147 -134.5 -261t-107.5 -149z" />
    <glyph glyph-name="E_r" unicode="Er" horiz-adv-x="1077" 
d="M553 515q-52 0 -96 23.5t-73 65.5q-16 -53 -0.5 -110.5t59.5 -88.5l-46 -72q-5 5 -15 11.5t-41 18t-63 11.5q-77 0 -127 -55.5t-50 -133.5q0 -76 48.5 -129.5t127.5 -53.5q51 0 92 23t62 59t28.5 79.5t-9.5 84.5l89 25q23 -76 9 -142.5t-52 -115.5t-97 -77t-127 -28
q-115 0 -193.5 80t-78.5 193q0 122 90 207t211 71q-17 41 -17 94q0 78 45 148q-25 81 -16 171l67 -10q-6 -52 3 -99q73 62 170 62q85 0 131 -46.5t45 -105.5q-1 -65 -49 -112.5t-127 -47.5zM546 734q-78 0 -128 -62q50 -81 130 -81q43 0 67 23.5t24 50.5q0 26 -23.5 47.5
t-69.5 21.5zM584 0q-10 0 -24 15t-13 25q38 37 102.5 144t135.5 263q-31 33 -31 64q0 33 28 64.5t61 41.5l54 -38l-38 -88q7 -7 44.5 -37.5t56 -55.5t18.5 -53q0 -23 -12 -52l-45 -111q-14 -33 -20.5 -58t-6.5 -38t4.5 -20.5t9 -9.5t9.5 -2q27 0 68.5 53t105.5 162
q11 0 25 -10t18 -21q-72 -124 -127.5 -187.5t-119.5 -63.5q-31 0 -52 13t-31.5 39.5t-4 73.5t32.5 109l37 90q8 20 8 32q0 15 -10 27.5t-41 38.5q-67 -147 -134.5 -261t-107.5 -149z" />
    <glyph glyph-name="F_r" unicode="Fr" horiz-adv-x="1120" 
d="M703 648l-100 -245h92l-22 -54h-92l-84 -206q-26 -68 -62.5 -116t-76 -72t-75 -34.5t-71.5 -10.5q-96 0 -154 60.5t-58 144.5q0 87 63 147t154 56v-88q-62 5 -96 -32.5t-34 -84.5q0 -45 32.5 -80.5t91.5 -35.5q72 0 122.5 56.5t89.5 161.5l54 134h-89l22 54h88l111 275
q-59 -1 -174.5 26t-154.5 27q-60 0 -90 -31t-30 -71q0 -35 23 -57.5t57 -22.5q20 0 39 8.5t29 16.5l9 8l44 -66q-5 -5 -14 -13.5t-40 -22t-66 -13.5q-70 0 -118 47t-48 115q0 73 54.5 128.5t150.5 55.5q45 0 185 -31.5t203 -14.5q48 45 104 45l19 -63q-6 -2 -16 -7.5
t-33.5 -31t-38.5 -62.5zM627 0q-10 0 -24 15t-13 25q38 37 102.5 144t135.5 263q-31 33 -31 64q0 33 28 64.5t61 41.5l54 -38l-38 -88q7 -7 44.5 -37.5t56 -55.5t18.5 -53q0 -23 -12 -52l-45 -111q-14 -33 -20.5 -58t-6.5 -38t4.5 -20.5t9 -9.5t9.5 -2q27 0 68.5 53
t105.5 162q11 0 25 -10t18 -21q-72 -124 -127.5 -187.5t-119.5 -63.5q-31 0 -52 13t-31.5 39.5t-4 73.5t32.5 109l37 90q8 20 8 32q0 15 -10 27.5t-41 38.5q-67 -147 -134.5 -261t-107.5 -149z" />
    <glyph glyph-name="space_r" unicode="&#x20;r" horiz-adv-x="669" 
d="M176 0q-10 0 -24 15t-13 25q38 37 102.5 144t135.5 263q-31 33 -31 64q0 33 28 64.5t61 41.5l54 -38l-38 -88q7 -7 44.5 -37.5t56 -55.5t18.5 -53q0 -23 -12 -52l-45 -111q-14 -33 -20.5 -58t-6.5 -38t4.5 -20.5t9 -9.5t9.5 -2q27 0 68.5 53t105.5 162q11 0 25 -10
t18 -21q-72 -124 -127.5 -187.5t-119.5 -63.5q-38 0 -61 22.5t-26.5 75t32.5 137.5l37 90q8 20 8 32q0 15 -10 27.5t-41 38.5q-67 -147 -134.5 -261t-107.5 -149z" />
    <glyph glyph-name="space_s" unicode="&#x20;s" horiz-adv-x="649" 
d="M167 -12q-11 1 -24.5 15t-12.5 25q25 24 71 88.5t96 152.5q84 144 148 285l84 -35q-12 -49 -16.5 -109t-3.5 -101t4 -91t3 -60q0 -47 -11 -80q68 35 158 191q11 0 25 -10t18 -21q-33 -58 -58.5 -95t-64.5 -77t-87 -59.5t-106 -19.5q-57 0 -93.5 24.5t-44.5 43.5
q23 14 55 34q24 -27 57 -27q31 0 45.5 26t14.5 94q0 15 -2.5 87t-1.5 118q-39 -78 -80 -149q-112 -195 -173 -250z" />
    <glyph glyph-name="E_s" unicode="Es" horiz-adv-x="1062" 
d="M553 515q-52 0 -96 23.5t-73 65.5q-16 -53 -0.5 -110.5t59.5 -88.5l-46 -72q-5 5 -15 11.5t-41 18t-63 11.5q-77 0 -127 -55.5t-50 -133.5q0 -76 48.5 -129.5t127.5 -53.5q51 0 92 23t62 59t28.5 79.5t-9.5 84.5l89 25q23 -76 9 -142.5t-52 -115.5t-97 -77t-127 -28
q-115 0 -193.5 80t-78.5 193q0 122 90 207t211 71q-17 41 -17 94q0 78 45 148q-25 81 -16 171l67 -10q-6 -52 3 -99q73 62 170 62q85 0 131 -46.5t45 -105.5q-1 -65 -49 -112.5t-127 -47.5zM546 734q-78 0 -128 -62q50 -81 130 -81q43 0 67 23.5t24 50.5q0 26 -23.5 47.5
t-69.5 21.5zM580 -12q-11 1 -24.5 15t-12.5 25q25 24 71 88.5t96 152.5q84 144 148 285l84 -35q-12 -48 -16.5 -108t-3.5 -101t4 -91.5t3 -60.5q0 -47 -11 -80q68 35 158 191q11 0 25 -10t18 -21q-33 -58 -58.5 -95t-64.5 -77t-87 -59.5t-106 -19.5q-57 0 -93.5 24.5
t-44.5 43.5q23 14 55 34q24 -27 57 -27q31 0 45.5 26t14.5 94q0 15 -2.5 87t-1.5 118q-39 -78 -80 -149q-112 -195 -173 -250z" />
    <glyph glyph-name="I_r" unicode="Ir" horiz-adv-x="1014" 
d="M362 215l176 437q-18 -7 -56 -21.5t-64.5 -25t-61 -28.5t-56 -35.5t-36.5 -43.5t-15 -55q0 -38 22 -62.5t58 -24.5v-87q-76 0 -122.5 50t-45.5 120q0 48 22 89t54 68.5t81 53t90 40.5t95 35t83 33q58 84 137 84l19 -63q-6 -2 -16 -7.5t-33.5 -31t-38.5 -62.5l-218 -535
q-26 -68 -62.5 -116t-76 -72t-75 -34.5t-71.5 -10.5q-96 0 -154 60.5t-58 144.5q0 87 63 147t153 56v-88q-61 5 -95 -32.5t-34 -84.5q0 -45 32.5 -80.5t91.5 -35.5q72 0 122.5 56.5t89.5 161.5zM521 0q-10 0 -24 15t-13 25q38 37 102.5 144t135.5 263q-31 33 -31 64
q0 33 28 64.5t61 41.5l54 -38l-38 -88q7 -7 44.5 -37.5t56 -55.5t18.5 -53q0 -23 -12 -52l-45 -111q-14 -33 -20.5 -58t-6.5 -38t4.5 -20.5t9 -9.5t9.5 -2q27 0 68.5 53t105.5 162q11 0 25 -10t18 -21q-72 -124 -127.5 -187.5t-119.5 -63.5q-31 0 -52 13t-31.5 39.5t-4 73.5
t32.5 109l37 90q8 20 8 32q0 15 -10 27.5t-41 38.5q-67 -147 -134.5 -261t-107.5 -149z" />
    <glyph glyph-name="I_s" unicode="Is" horiz-adv-x="989" 
d="M362 215l176 437q-18 -7 -56 -21.5t-64.5 -25t-61 -28.5t-56 -35.5t-36.5 -43.5t-15 -55q0 -38 22 -62.5t58 -24.5v-87q-76 0 -122.5 50t-45.5 120q0 48 22 89t54 68.5t81 53t90 40.5t95 35t83 33q58 84 137 84l19 -63q-6 -2 -16 -7.5t-33.5 -31t-38.5 -62.5l-218 -535
q-26 -68 -62.5 -116t-76 -72t-75 -34.5t-71.5 -10.5q-96 0 -154 60.5t-58 144.5q0 87 63 147t153 56v-88q-61 5 -95 -32.5t-34 -84.5q0 -45 32.5 -80.5t91.5 -35.5q72 0 122.5 56.5t89.5 161.5zM507 -12q-11 1 -24.5 15t-12.5 25q25 24 71 88.5t96 152.5q84 144 148 285
l84 -35q-12 -48 -16.5 -108t-3.5 -101t4 -91.5t3 -60.5q0 -47 -11 -80q68 35 158 191q11 0 25 -10t18 -21q-33 -58 -58.5 -95t-64.5 -77t-87 -59.5t-106 -19.5q-57 0 -93.5 24.5t-44.5 43.5q23 14 55 34q24 -27 57 -27q31 0 45.5 26t14.5 94q0 15 -2.5 87t-1.5 118
q-39 -78 -80 -149q-112 -195 -173 -250z" />
    <glyph glyph-name="W_r" unicode="Wr" horiz-adv-x="1397" 
d="M759 245l178 441q31 78 88.5 109.5t149.5 13.5l-17 -75q-27 2 -48.5 1.5t-41.5 -19t-37 -59.5l-156 -386q-124 -308 -305 -308q-47 0 -74.5 22t-32.5 61q-81 -83 -167 -83q-51 0 -79.5 26t-32.5 88t40 165l153 380q-18 -7 -56 -21.5t-64.5 -25t-61 -28.5t-56 -35.5
t-36.5 -43.5t-15 -55q0 -38 22 -62.5t58 -24.5v-87q-76 0 -122.5 50t-45.5 120q0 48 22 89t54 68t81 53t90 41t95.5 35t83.5 33q25 37 61 60.5t75 23.5l19 -63q-2 -1 -6 -2.5t-15 -9.5t-21.5 -18.5t-23.5 -29.5t-23 -43l-188 -471q-53 -131 8 -131q42 0 91 55.5t88 143.5
l195 483h106l-221 -551q-53 -131 8 -131q44 0 93 58t87 143zM904 0q-10 0 -24 15t-13 25q38 37 102.5 144t135.5 263q-31 33 -31 64q0 33 28 64.5t61 41.5l54 -38l-38 -88q7 -7 44.5 -37.5t56 -55.5t18.5 -53q0 -23 -12 -52l-45 -111q-14 -33 -20.5 -58t-6.5 -38t4.5 -20.5
t9 -9.5t9.5 -2q27 0 68.5 53t105.5 162q11 0 25 -10t18 -21q-72 -124 -127.5 -187.5t-119.5 -63.5q-31 0 -52 13t-31.5 39.5t-4 73.5t32.5 109l37 90q8 20 8 32q0 15 -10 27.5t-41 38.5q-67 -147 -134.5 -261t-107.5 -149z" />
    <glyph glyph-name="W_i" unicode="Wi" horiz-adv-x="1247" 
d="M759 245l178 441q52 130 153 130q69 0 144 -64q20 -3 33.5 -20t13.5 -38q0 -26 -18.5 -44t-43.5 -18q-27 0 -45.5 21t-13.5 54q-82 60 -129 -50l-156 -386q-124 -308 -305 -308q-47 0 -74.5 22t-32.5 61q-81 -83 -167 -83q-51 0 -79.5 26t-32.5 88t40 165l153 380
q-18 -7 -56 -21.5t-64.5 -25t-61 -28.5t-56 -35.5t-36.5 -43.5t-15 -55q0 -38 22 -62.5t58 -24.5v-87q-76 0 -122.5 50t-45.5 120q0 48 22 89t54 68t81 53t90 41t95.5 35t83.5 33q25 37 61 60.5t75 23.5l19 -63q-2 -1 -6 -2.5t-15 -9.5t-21.5 -18.5t-23.5 -29.5t-23 -43
q-173 -429 -188 -471q-53 -131 8 -131q42 0 91 55.5t88 143.5l195 483h106l-221 -551q-53 -131 8 -131q44 0 93 58t87 143zM1261 269q11 0 25 -10t18 -21q-144 -251 -269 -251q-39 0 -62.5 21t-28 73.5t32.5 140.5l120 297h105l-136 -337q-19 -48 -24 -78t1.5 -40t20.5 -10
q35 0 88.5 60.5t108.5 154.5z" />
    <glyph glyph-name="W_h" unicode="Wh" horiz-adv-x="1486" 
d="M1500 269q11 0 25 -10t18 -21q-144 -251 -269 -251q-39 0 -62.5 21t-28 73.5t32.5 140.5l40 99q35 88 35 102q0 22 -28 22q-22 0 -55.5 -19.5t-65.5 -55.5l-150 -370h-105l283 701q-96 60 -139 -44l-156 -386q-124 -308 -305 -308q-47 0 -74.5 22t-32.5 61
q-81 -83 -167 -83q-51 0 -79.5 26t-32.5 88t40 165l153 380q-18 -7 -56 -21.5t-64.5 -25t-61 -28.5t-56 -35.5t-36.5 -43.5t-15 -55q0 -38 22 -62.5t58 -24.5v-87q-76 0 -122.5 50t-45.5 120q0 48 22 89t54 68t81 53t90 41t95.5 35t83.5 33q25 37 61 60.5t75 23.5l19 -63
q-2 -1 -6 -2.5t-15 -9.5t-21.5 -18.5t-23.5 -29.5t-23 -43l-188 -471q-53 -131 8 -131q42 0 91 55.5t88 143.5l195 483h106l-221 -551q-53 -131 8 -131q44 0 93 58t87 143q14 36 178 441q52 130 153 130q96 0 192 -99l-101 -251q7 7 19.5 18t48.5 29.5t68 18.5q36 0 59 -20
t23 -57q0 -41 -33 -123l-61 -150q-14 -34 -20 -58.5t-6.5 -37.5t4 -20.5t9 -9.5t10.5 -2q36 0 89.5 60.5t108.5 154.5z" />
    <glyph glyph-name="V_s" unicode="Vs" horiz-adv-x="1168" 
d="M493 650l-120 -544q350 253 393 714l96 16q-3 -38 -5.5 -64t-11 -78t-19.5 -92.5t-31.5 -99t-46 -107t-64.5 -106.5t-86 -107.5t-111 -100.5t-139 -94h-101l141 640q-20 -9 -67.5 -26.5t-81.5 -32.5t-72 -37t-58.5 -52t-20.5 -66q0 -38 22 -62.5t58 -24.5v-87
q-76 0 -122.5 50t-45.5 120q0 48 21.5 88.5t52 67t79.5 52.5t88.5 41t94.5 35t83 32q24 39 63 63t80 24l19 -63q-3 0 -7.5 -1.5t-17 -8t-23.5 -16.5t-22.5 -29t-17.5 -44zM686 -12q-11 1 -24.5 15t-12.5 25q25 24 71 88.5t96 152.5q84 144 148 285l84 -35
q-12 -48 -16.5 -108t-3.5 -101t4 -91.5t3 -60.5q0 -47 -11 -80q68 35 158 191q11 0 25 -10t18 -21q-33 -58 -58.5 -95t-64.5 -77t-87 -59.5t-106 -19.5q-57 0 -93.5 24.5t-44.5 43.5q23 14 55 34q24 -27 57 -27q31 0 45.5 26t14.5 94q0 15 -2.5 87t-1.5 118
q-39 -78 -80 -149q-112 -195 -173 -250z" />
    <glyph glyph-name="T_r" unicode="Tr" horiz-adv-x="1065" 
d="M1010 748q0 -3 -2 -9t-12 -21t-26 -26t-50 -20.5t-78 -9.5q-61 0 -150 14l-195 -480q-26 -68 -62.5 -116t-76 -72t-75 -34.5t-71.5 -10.5q-96 0 -154 60.5t-58 144.5q0 87 63 147t153 56v-88q-61 5 -95 -32.5t-34 -85.5q0 -45 32.5 -80t91.5 -35q72 0 122.5 56.5
t89.5 161.5l172 427q-29 6 -91.5 19.5t-95 20.5t-74.5 13t-69 6q-67 0 -96.5 -29t-29.5 -68q0 -36 23 -58t57 -22q20 0 39.5 8.5t28.5 16.5l9 8l44 -66q-5 -5 -14 -13.5t-40 -22t-66 -13.5q-70 0 -118 46.5t-48 117.5q0 73 54 127.5t161 54.5q73 0 278.5 -46t289.5 -46
q38 0 68 7.5t41 14.5l10 7zM572 0q-10 0 -24 15t-13 25q38 37 102.5 144t135.5 263q-31 33 -31 64q0 33 28 64.5t61 41.5l54 -38l-38 -88q7 -7 44.5 -37.5t56 -55.5t18.5 -53q0 -23 -12 -52l-45 -111q-14 -33 -20.5 -58t-6.5 -38t4.5 -20.5t9 -9.5t9.5 -2q27 0 68.5 53
t105.5 162q11 0 25 -10t18 -21q-72 -124 -127.5 -187.5t-119.5 -63.5q-31 0 -52 13t-31.5 39.5t-4 73.5t32.5 109l37 90q8 20 8 32q0 15 -10 27.5t-41 38.5q-67 -147 -134.5 -261t-107.5 -149z" />
    <glyph glyph-name="T_i" unicode="Ti" horiz-adv-x="910" 
d="M211 50q72 0 122.5 56.5t89.5 161.5l168 416q-29 7 -90.5 23t-93.5 24t-74.5 15.5t-70.5 7.5q-65 0 -94 -29t-29 -68q0 -35 23 -57.5t57 -22.5q20 0 39.5 8.5t28.5 16.5l9 8l44 -66q-5 -5 -14 -13.5t-40 -22t-66 -13.5q-70 0 -118 46.5t-48 117.5q0 73 53.5 127.5
t157.5 54.5q78 0 289.5 -55t291.5 -48q2 23 19.5 38.5t41.5 15.5q26 0 44 -18t18 -45q0 -11 -3.5 -21.5t-14 -26.5t-38.5 -26t-69 -10q-68 0 -158 17l-189 -466q-27 -67 -63.5 -115.5t-76 -72.5t-74.5 -34.5t-71 -10.5q-96 0 -154 60.5t-58 144.5q0 87 63 147t153 56v-88
q-61 5 -95 -32.5t-34 -84.5q0 -45 32.5 -80.5t91.5 -35.5zM924 269q11 0 25 -10t18 -21q-144 -251 -269 -251q-32 0 -53.5 12t-33 38t-4.5 73t33 112l120 297h105l-136 -337q-19 -48 -24 -78t1.5 -40t20.5 -10q35 0 88.5 60.5t108.5 154.5z" />
    <glyph glyph-name="S_r" unicode="Sr" horiz-adv-x="1097" 
d="M73 203q0 -58 28 -106q28 29 83 81.5t139 132.5t131 126q-18 112 -18 178q0 109 47 171t127 62q65 0 101 -38t36 -96q0 -36 -13.5 -70.5t-48.5 -76.5t-55 -63t-74 -73q24 -146 24 -207q0 -140 -83 -227t-215 -87q-110 0 -191 62q-76 -101 -58 -209h-73q-22 129 78 261
q-58 75 -58 178q0 62 22.5 115.5t60.5 87.5t85 53t98.5 17t98.5 -26l-32 -78q-95 39 -167.5 -15t-72.5 -153zM482 224q0 38 -13 123q-53 -51 -158 -152.5t-158 -152.5q55 -40 122 -40q91 0 149 60.5t58 161.5zM534 622q0 -40 8 -99q66 64 95 103.5t29 77.5q0 26 -13 42
t-36 16q-35 0 -59 -37t-24 -103zM604 0q-10 0 -24 15t-13 25q38 37 102.5 144t135.5 263q-31 33 -31 64q0 33 28 64.5t61 41.5l54 -38l-38 -88q7 -7 44.5 -37.5t56 -55.5t18.5 -53q0 -23 -12 -52l-45 -111q-14 -33 -20.5 -58t-6.5 -38t4.5 -20.5t9 -9.5t9.5 -2q27 0 68.5 53
t105.5 162q11 0 25 -10t18 -21q-72 -124 -127.5 -187.5t-119.5 -63.5q-31 0 -52 13t-31.5 39.5t-4 73.5t32.5 109l37 90q8 20 8 32q0 15 -10 27.5t-41 38.5q-67 -147 -134.5 -261t-107.5 -149z" />
    <glyph glyph-name="P_s" unicode="Ps" horiz-adv-x="1049" 
d="M363 549l-85 -209q95 -42 167.5 -16.5t115.5 91t43 139.5q0 88 -61 152.5t-164 64.5q-67 0 -124 -27t-93 -68t-56 -88t-20 -89q0 -23 6 -46.5t12 -35.5l6 -12l-71 -53q-39 58 -39 143q0 66 27.5 130t75.5 114.5t120.5 82t156.5 31.5q141 0 231.5 -85t90.5 -210
q0 -104 -60.5 -191.5t-160.5 -119t-230 25.5l-115 -286h-105l240 596q22 55 65.5 92.5t95.5 37.5l19 -63q-6 -2 -16 -7.5t-33.5 -31.5t-38.5 -62zM567 -12q-11 1 -24.5 15t-12.5 25q25 24 71 88.5t96 152.5q84 144 148 285l84 -35q-12 -48 -16.5 -108t-3.5 -101t4 -91.5
t3 -60.5q0 -47 -11 -80q68 35 158 191q11 0 25 -10t18 -21q-33 -58 -58.5 -95t-64.5 -77t-87 -59.5t-106 -19.5q-57 0 -93.5 24.5t-44.5 43.5q23 14 55 34q24 -27 57 -27q31 0 45.5 26t14.5 94q0 15 -2.5 87t-1.5 118q-39 -78 -80 -149q-112 -195 -173 -250z" />
    <glyph glyph-name="P_r" unicode="Pr" horiz-adv-x="1069" 
d="M363 549l-85 -209q95 -42 167.5 -16.5t115.5 91t43 139.5q0 88 -61 152.5t-164 64.5q-67 0 -124 -27t-93 -68t-56 -88t-20 -89q0 -23 6 -46.5t12 -35.5l6 -12l-71 -53q-39 58 -39 143q0 66 27.5 130t75.5 114.5t120.5 82t156.5 31.5q141 0 231.5 -85t90.5 -210
q0 -104 -60.5 -191.5t-160.5 -119t-230 25.5l-115 -286h-105l240 596q22 55 65.5 92.5t95.5 37.5l19 -63q-6 -2 -16 -7.5t-33.5 -31.5t-38.5 -62zM576 0q-10 0 -24 15t-13 25q38 37 102.5 144t135.5 263q-31 33 -31 64q0 33 28 64.5t61 41.5l54 -38l-38 -88q7 -7 44.5 -37.5
t56 -55.5t18.5 -53q0 -23 -12 -52l-45 -111q-14 -33 -20.5 -58t-6.5 -38t4.5 -20.5t9 -9.5t9.5 -2q27 0 68.5 53t105.5 162q11 0 25 -10t18 -21q-72 -124 -127.5 -187.5t-119.5 -63.5q-31 0 -52 13t-31.5 39.5t-4 73.5t32.5 109l37 90q8 20 8 32q0 15 -10 27.5t-41 38.5
q-67 -147 -134.5 -261t-107.5 -149z" />
    <glyph glyph-name="M_s" unicode="Ms" horiz-adv-x="1399" 
d="M455 772l72 -80q81 71 156 71q42 0 68 -25t23 -67q46 49 93.5 70.5t84.5 21.5q41 0 66 -23t25 -63q0 -44 -38 -139l-216 -536q-17 -42 -10 -73.5t46 -54.5l-36 -90q-158 75 -94 247l193 479q44 105 44 125q0 30 -30 30t-73 -26t-79 -65l-236 -587h-105l210 523
q44 105 44 125q0 30 -30 30t-73 -26t-79 -65l-236 -587h-105l273 680q-24 -11 -66.5 -27t-74 -28t-68.5 -30.5t-60.5 -37t-39.5 -45t-16 -56.5q0 -38 22 -62.5t58 -24.5v-87q-76 0 -122.5 50t-45.5 120q0 50 22.5 91.5t56 69t85 53.5t96 42.5t102.5 38.5t93 38zM917 -12
q-11 1 -24.5 15t-12.5 25q25 24 71 88.5t96 152.5q84 144 148 285l84 -35q-12 -48 -16.5 -108t-3.5 -101t4 -91.5t3 -60.5q0 -47 -11 -80q68 35 158 191q11 0 25 -10t18 -21q-33 -58 -58.5 -95t-64.5 -77t-87 -59.5t-106 -19.5q-57 0 -93.5 24.5t-44.5 43.5q23 14 55 34
q24 -27 57 -27q31 0 45.5 26t14.5 94q0 15 -2.5 87t-1.5 118q-39 -78 -80 -149q-112 -195 -173 -250z" />
    <glyph glyph-name="M_r" unicode="Mr" horiz-adv-x="1419" 
d="M455 772l72 -80q81 71 156 71q42 0 68 -25t23 -67q46 49 93.5 70.5t84.5 21.5q41 0 66 -23t25 -63q0 -44 -38 -139l-216 -536q-17 -42 -10 -73.5t46 -54.5l-36 -90q-158 75 -94 247l193 479q44 105 44 125q0 30 -30 30t-73 -26t-79 -65l-236 -587h-105l210 523
q44 105 44 125q0 30 -30 30t-73 -26t-79 -65l-236 -587h-105l273 680q-24 -11 -66.5 -27t-74 -28t-68.5 -30.5t-60.5 -37t-39.5 -45t-16 -56.5q0 -38 22 -62.5t58 -24.5v-87q-76 0 -122.5 50t-45.5 120q0 50 22.5 91.5t56 69t85 53.5t96 42.5t102.5 38.5t93 38zM926 0
q-10 0 -24 15t-13 25q38 37 102.5 144t135.5 263q-31 33 -31 64q0 33 28 64.5t61 41.5l54 -38l-38 -88q7 -7 44.5 -37.5t56 -55.5t18.5 -53q0 -23 -12 -52l-45 -111q-14 -33 -20.5 -58t-6.5 -38t4.5 -20.5t9 -9.5t9.5 -2q27 0 68.5 53t105.5 162q11 0 25 -10t18 -21
q-72 -124 -127.5 -187.5t-119.5 -63.5q-31 0 -52 13t-31.5 39.5t-4 73.5t32.5 109l37 90q8 20 8 32q0 15 -10 27.5t-41 38.5q-67 -147 -134.5 -261t-107.5 -149z" />
    <glyph glyph-name="K_r" unicode="Kr" horiz-adv-x="1259" 
d="M528 285l-30 8l-61 -150q-26 -68 -62.5 -116t-76 -72t-75 -34.5t-71.5 -10.5q-96 0 -154 60.5t-58 144.5q0 87 63 147t153 56v-88q-61 5 -95 -32.5t-34 -84.5q0 -45 32.5 -80.5t91.5 -35.5q72 0 122.5 56.5t89.5 161.5l164 409q-19 -8 -54 -19t-62 -19.5t-59 -22.5
t-53 -29.5t-35 -39.5t-14 -52q0 -38 22 -62t58 -24v-87q-76 0 -122.5 50t-45.5 120q0 48 20.5 87t52 63t78 45.5t87 34t92 29.5t82.5 30q58 84 137 84l19 -63q-6 -2 -16 -7.5t-33.5 -31t-38.5 -62.5l-120 -294q79 -16 131.5 19t96.5 135l68 171q32 81 89 115t152 15l-17 -75
q-28 2 -49.5 1.5t-41.5 -20.5t-38 -63l-54 -134q-84 -209 -231 -236q78 -51 52 -205l-31 -172q-5 -55 7 -74.5t58 -18.5v-92q-87 -9 -130.5 46t-29.5 147l26 142q18 97 6 148.5t-58 81.5zM766 0q-10 0 -24 15t-13 25q38 37 102.5 144t135.5 263q-31 33 -31 64q0 33 28 64.5
t61 41.5l54 -38l-38 -88q7 -7 44.5 -37.5t56 -55.5t18.5 -53q0 -23 -12 -52l-45 -111q-14 -33 -20.5 -58t-6.5 -38t4.5 -20.5t9 -9.5t9.5 -2q27 0 68.5 53t105.5 162q11 0 25 -10t18 -21q-72 -124 -127.5 -187.5t-119.5 -63.5q-31 0 -52 13t-31.5 39.5t-4 73.5t32.5 109
l37 90q8 20 8 32q0 15 -10 27.5t-41 38.5q-67 -147 -134.5 -261t-107.5 -149z" />
    <glyph glyph-name="K_l" unicode="Kl" horiz-adv-x="1129" 
d="M1143 269q11 0 25 -10t18 -21q-144 -251 -269 -251q-39 0 -62.5 21t-28 73.5t32.5 140.5l193 478q-47 30 -80.5 20.5t-56.5 -63.5l-56 -139q-85 -210 -231 -236q78 -51 52 -205l-31 -172q-5 -55 7 -74.5t58 -18.5v-92q-87 -9 -130.5 46t-29.5 147l26 142q18 97 6 148.5
t-58 81.5l-30 8l-61 -150q-26 -68 -62.5 -116t-76 -72t-75 -34.5t-71.5 -10.5q-96 0 -154 60.5t-58 144.5q0 87 63 147t153 56v-88q-61 5 -95 -32.5t-34 -84.5q0 -45 32.5 -80.5t91.5 -35.5q72 0 122.5 56.5t89.5 161.5l164 409q-19 -8 -54 -19t-62 -19.5t-59 -22.5
t-53 -29.5t-35 -39.5t-14 -52q0 -38 22 -62t58 -24v-87q-76 0 -122.5 50t-45.5 120q0 48 20.5 87t52 63t78 45.5t87 34t92 29.5t82.5 30q58 84 137 84l19 -63q-6 -2 -16 -7.5t-33.5 -31t-38.5 -62.5l-120 -294q79 -16 131.5 19t96.5 135l71 178q52 130 153 130
q51 0 94.5 -22.5t95.5 -76.5l-216 -535q-21 -51 -25 -81t2.5 -38.5t19.5 -8.5q36 0 89.5 60.5t108.5 154.5z" />
    <glyph glyph-name="K_i" unicode="Ki" horiz-adv-x="1119" 
d="M363 215l164 409q-19 -8 -54 -19t-62 -19.5t-59 -22.5t-53 -29.5t-35 -39.5t-14 -52q0 -38 22 -62t58 -24v-87q-76 0 -122.5 50t-45.5 120q0 48 20.5 87t52 63t78 45.5t87 34t92 29.5t82.5 30q58 84 137 84l19 -63q-6 -2 -16 -7.5t-33.5 -31t-38.5 -62.5l-120 -294
q79 -16 131.5 19t96.5 135l71 178q52 130 150 130q67 0 142 -64q20 -3 33.5 -20t13.5 -38q0 -26 -18 -44t-44 -18q-27 0 -45.5 21t-13.5 54q-42 31 -71.5 19.5t-52.5 -69.5q-9 -23 -27.5 -69.5t-28.5 -69.5q-85 -210 -231 -236q78 -51 52 -205q-5 -28 -15.5 -86t-15.5 -86
q-5 -55 7 -74.5t58 -18.5v-92q-87 -9 -130.5 46t-29.5 147q4 23 12.5 70.5t13.5 71.5q18 97 6 148.5t-58 81.5l-30 8l-61 -150q-26 -68 -62.5 -116t-76 -72t-75 -34.5t-71.5 -10.5q-96 0 -154 60.5t-58 144.5q0 87 63 147t153 56v-88q-61 5 -95 -32.5t-34 -84.5
q0 -45 32.5 -80.5t91.5 -35.5q72 0 122.5 56.5t89.5 161.5zM1133 269q11 0 25 -10t18 -21q-144 -251 -269 -251q-39 0 -62.5 21t-28 73.5t32.5 140.5l120 297h105l-136 -337q-19 -48 -24 -78t1.5 -40t20.5 -10q35 0 88.5 60.5t108.5 154.5z" />
    <glyph glyph-name="K_h" unicode="Kh" horiz-adv-x="1368" 
d="M1382 269q11 0 25 -10t18 -21q-144 -251 -269 -251q-39 0 -62.5 21t-28 73.5t32.5 140.5l40 99q35 87 35 102q0 22 -28 22q-22 0 -55.5 -19.5t-65.5 -55.5l-150 -370h-105l283 700q-47 30 -80.5 20.5t-56.5 -63.5l-56 -139q-85 -210 -231 -236q78 -51 52 -205l-31 -172
q-5 -55 7 -74.5t58 -18.5v-92q-87 -9 -130.5 46t-29.5 147l26 142q18 97 6 148.5t-58 81.5l-30 8l-61 -150q-26 -68 -62.5 -116t-76 -72t-75 -34.5t-71.5 -10.5q-96 0 -154 60.5t-58 144.5q0 87 63 147t153 56v-88q-61 5 -95 -32.5t-34 -84.5q0 -45 32.5 -80.5t91.5 -35.5
q72 0 122.5 56.5t89.5 161.5l164 409q-19 -8 -54 -19t-62 -19.5t-59 -22.5t-53 -29.5t-35 -39.5t-14 -52q0 -38 22 -62t58 -24v-87q-76 0 -122.5 50t-45.5 120q0 48 20.5 87t52 63t78 45.5t87 34t92 29.5t82.5 30q58 84 137 84l19 -63q-6 -2 -16 -7.5t-33.5 -31t-38.5 -62.5
l-120 -294q79 -16 131.5 19t96.5 135l71 178q52 130 153 130q51 0 94.5 -22.5t95.5 -76.5l-101 -251q7 7 19.5 18t48.5 29.5t68 18.5q36 0 59 -20t23 -57q0 -41 -33 -123l-61 -150q-14 -34 -20 -58.5t-6.5 -37.5t4 -20.5t9 -9.5t10.5 -2q36 0 89.5 60.5t108.5 154.5z" />
    <glyph glyph-name=".notdef" horiz-adv-x="500" 
 />
    <glyph glyph-name=".null" horiz-adv-x="0" 
 />
    <glyph glyph-name=".null" horiz-adv-x="0" 
 />
    <glyph glyph-name="nonmarkingreturn" horiz-adv-x="333" 
 />
    <glyph glyph-name="CR" unicode="&#xd;" horiz-adv-x="380" 
 />
    <glyph glyph-name="space" unicode=" " horiz-adv-x="250" 
 />
    <glyph glyph-name="exclam" unicode="!" horiz-adv-x="332" 
d="M122 -13q-30 0 -51 21t-21 51t21 51t51 21t51 -21t21 -51t-21 -51t-51 -21zM207 196h-65l181 521h121z" />
    <glyph glyph-name="quotedbl" unicode="&#x22;" horiz-adv-x="423" 
d="M268 642l-138 -253h-50l77 296q5 20 21 32.5t37 12.5q25 0 42.5 -17.5t17.5 -42.5q0 -14 -7 -28zM472 642l-138 -253h-50l77 296q5 20 21 32.5t37 12.5q25 0 42.5 -17.5t17.5 -42.5q0 -14 -7 -28z" />
    <glyph glyph-name="numbersign" unicode="#" horiz-adv-x="687" 
d="M704 463h-140l-85 -210h140l-30 -73h-139l-73 -180h-87l73 180h-154l-73 -180h-87l73 180h-139l30 73h138l85 210h-138l29 73h138l73 181h88l-73 -181h153l73 181h88l-73 -181h139zM392 253l85 210h-154l-85 -210h154z" />
    <glyph glyph-name="dollar" unicode="$" horiz-adv-x="466" 
d="M108 -57h-55l38 95q-46 11 -69.5 40.5t-24 65.5t6.5 66t19 51h98q-15 -25 -23.5 -52.5t-3.5 -54t30 -34.5l90 223q-26 32 -36.5 47.5t-24.5 49.5t-14 69q0 29 14 61.5t39.5 63t69.5 50t96 18.5l33 80h55l-35 -88q43 -13 64.5 -43.5t21.5 -65.5t-7 -65t-19 -49h-98
q15 25 24.5 52.5t6 54t-26.5 34.5l-86 -215q26 -34 39 -52.5t27 -52.5t14 -67q0 -31 -12 -62.5t-37 -62t-71 -49.5t-107 -18zM275 235q0 26 -24 63l-73 -181q44 5 70.5 37.5t26.5 80.5zM235 497q0 -22 20 -52l68 168q-42 -9 -65 -40.5t-23 -75.5z" />
    <glyph glyph-name="percent" unicode="%" horiz-adv-x="663" 
d="M80 0l473 573h79l-474 -573h-78zM53 432q0 58 41.5 99.5t99.5 41.5t99.5 -41.5t41.5 -99.5t-41.5 -99.5t-99.5 -41.5t-99.5 41.5t-41.5 99.5zM126 431q0 -29 19 -48t48 -19t48.5 19.5t19.5 47.5q0 29 -19.5 48.5t-48.5 19.5q-28 0 -47.5 -19.5t-19.5 -48.5zM377 141
q0 59 41.5 100t99.5 41t99.5 -41t41.5 -100t-41.5 -100t-99.5 -41t-99.5 41t-41.5 100zM450 140q0 -28 19 -47.5t48 -19.5t48.5 19.5t19.5 47.5t-19.5 48t-48.5 20q-28 0 -47.5 -19.5t-19.5 -48.5z" />
    <glyph glyph-name="ampersand" unicode="&#x26;" horiz-adv-x="700" 
d="M627 477l76 28q23 -52 21 -93t-48.5 -69t-138.5 -39q5 -124 -76.5 -220t-206.5 -96q-106 0 -179.5 70.5t-73.5 179.5q0 108 71 178.5t168 67.5q-11 30 -11 65q0 94 63 155t152 61q83 0 129 -51.5t46 -115.5q0 -58 -38 -99t-94 -41q-48 0 -73.5 30t-17.5 68q10 46 53 46
q25 0 41 -20t11 -45q34 11 39.5 47t-21.5 68.5t-74 32.5q-48 0 -88.5 -35.5t-40.5 -100.5q0 -68 51 -109l-45 -66q-31 28 -79 28q-58 0 -101.5 -47t-43.5 -114q0 -65 42 -114t117 -49q90 0 145.5 69t49.5 149q-78 -11 -107.5 -38t-34.5 -79h-68q13 101 66.5 139.5
t169.5 57.5q119 20 143.5 34.5t5.5 66.5z" />
    <glyph glyph-name="quotesingle" unicode="'" horiz-adv-x="219" 
d="M268 642l-138 -253h-50l77 296q5 20 21 32.5t37 12.5q25 0 42.5 -17.5t17.5 -42.5q0 -14 -7 -28z" />
    <glyph glyph-name="parenleft" unicode="(" horiz-adv-x="385" 
d="M440 876l48 -83q-134 -83 -176 -186l-200 -496q-40 -100 -40 -125q0 -18 9 -39.5t17 -34.5l9 -12l-84 -56q-6 8 -14.5 21.5t-23 50t-14.5 68.5q0 47 31 120l206 512q10 25 15 36.5t24.5 43t41 55.5t61.5 58.5t90 66.5z" />
    <glyph glyph-name="parenright" unicode=")" horiz-adv-x="385" 
d="M445 876q6 -8 14.5 -21.5t23 -50t14.5 -68.5q0 -47 -31 -120l-206 -512q-10 -25 -15 -36.5t-24.5 -43t-41 -55.5t-61.5 -58.5t-90 -66.5l-48 83q134 83 176 186l200 496q40 100 40 125q0 18 -9 39.5t-17 34.5l-9 12z" />
    <glyph glyph-name="asterisk" unicode="*" horiz-adv-x="423" 
d="M139 673q6 -4 83 -103q3 15 10 50.5t11 56.5t5 23q8 18 25 25.5t35 0.5q17 -7 24 -24.5t0 -35.5q-22 -36 -71 -111q120 16 131 16q19 -2 31.5 -16t11.5 -33t-15.5 -31.5t-34.5 -10.5q-3 0 -128 34q51 -104 56 -120q5 -19 -4.5 -35.5t-28.5 -21.5q-18 -4 -34 6t-21 29
q-1 4 -7 132q-93 -87 -97 -90q-16 -11 -35 -6.5t-29 20.5t-5 34.5t21 28.5q5 4 122 48q-111 61 -114 64q-15 13 -17 32t10 33t31 15.5t34 -10.5z" />
    <glyph glyph-name="plus" unicode="+" horiz-adv-x="585" 
d="M478 242h-173l-72 -177h-97l71 177h-172l36 89h172l71 177h99l-72 -177h173z" />
    <glyph glyph-name="comma" unicode="," horiz-adv-x="270" 
d="M194 52q0 -35 -19.5 -70t-47 -60t-55 -45.5t-46.5 -30.5l-20 -10l-22 44q104 70 114 111q-21 8 -34.5 26.5t-13.5 41.5q0 30 21 51t50 21q28 0 50.5 -19.5t22.5 -59.5z" />
    <glyph glyph-name="hyphen" unicode="-" horiz-adv-x="490" 
d="M159 327h263l-32 -80h-263z" />
    <glyph glyph-name="period" unicode="." horiz-adv-x="270" 
d="M122 -13q-30 0 -51 21t-21 51t21 51t51 21t51 -21t21 -51t-21 -51t-51 -21z" />
    <glyph glyph-name="slash" unicode="/" horiz-adv-x="448" 
d="M105 -124h-55l387 960h55z" />
    <glyph glyph-name="zero" unicode="0" horiz-adv-x="499" 
d="M364 730q56 0 94.5 -39t38.5 -124q0 -73 -29 -171.5t-76.5 -190t-118 -155t-143.5 -63.5q-57 0 -95 39.5t-38 125.5q0 58 18 134t52.5 153t78.5 142.5t101.5 107t116.5 41.5zM139 67q47 0 111 103.5t107.5 227t43.5 186.5q0 66 -43 66q-49 0 -113.5 -103.5t-108 -227
t-43.5 -187.5q0 -37 14.5 -51t31.5 -14z" />
    <glyph glyph-name="one" unicode="1" horiz-adv-x="389" 
d="M448 717l-289 -717h-101l202 501q-93 -108 -201 -210l-41 46q93 88 175.5 183t118.5 146l35 51h101z" />
    <glyph glyph-name="two" unicode="2" horiz-adv-x="462" 
d="M490 587q0 -168 -281 -392l-122 -97h247l-39 -98h-382l44 109q101 74 200 159q103 89 167 167.5t64 146.5q0 30 -15 49.5t-43 19.5q-55 0 -92.5 -51t-37.5 -117h-101q0 41 14 83t41 79.5t73.5 61t105.5 23.5q76 0 116.5 -38t40.5 -105z" />
    <glyph glyph-name="three" unicode="3" horiz-adv-x="489" 
d="M507 594q0 -67 -45 -125t-131 -85q74 -35 74 -127q0 -44 -17 -90.5t-48.5 -87t-84 -66.5t-117.5 -26q-60 0 -97.5 22t-51 53.5t-14 70t7 68.5t18.5 52h111q-15 -24 -24.5 -54t-11.5 -60.5t15 -51t53 -20.5q68 0 115 65t47 129q0 25 -10 41.5t-21.5 23.5t-34.5 9t-33 1.5
t-32 -2.5l39 98q49 0 86.5 13.5t56.5 31.5t31 41t15 38t3 26q0 69 -58 69q-49 0 -84 -40t-44 -92h-100q5 39 21 75t43 67.5t70.5 50t98.5 18.5q41 0 71.5 -11.5t45.5 -26.5t24 -36t11 -34.5t2 -27.5z" />
    <glyph glyph-name="four" unicode="4" horiz-adv-x="516" 
d="M227 176h-261l38 92l409 449h133l-180 -446q23 3 40 9t22 10l6 4l42 -45l-5 -7.5t-15.5 -16.5t-28 -21.5t-42 -18t-57.5 -9.5l-71 -176h-101zM93 268h171l136 338z" />
    <glyph glyph-name="five" unicode="5" horiz-adv-x="498" 
d="M402 592q-14 0 -47 4t-59 8l-26 5l-49 -122q35 34 90 34q61 0 94 -42t33 -111q0 -50 -19.5 -113t-55.5 -124t-96.5 -102.5t-132.5 -41.5q-62 0 -98.5 27.5t-44 71t-2.5 85.5t20 82h108q-35 -78 -29.5 -132t53.5 -54t95.5 63t74 137.5t26.5 121.5q0 62 -51 62
q-31 0 -64.5 -31t-59.5 -82l-88 35l139 344q171 -29 203 -29q53 0 90 29l44 -51q-53 -74 -148 -74z" />
    <glyph glyph-name="six" unicode="6" horiz-adv-x="491" 
d="M147 -13q-14 0 -29 2.5t-37 12t-38.5 26t-28.5 48.5t-12 75q0 75 29 173t76.5 189t119 154t146.5 63q80 0 114 -62t5 -165h-106q8 17 13.5 40t6.5 48t-9 42t-32 17q-41 0 -90 -65.5t-95 -168.5q62 51 125 51q57 0 89 -38t30 -106q-2 -69 -35.5 -145t-99 -133.5
t-142.5 -57.5zM275 397q-35 0 -77.5 -33t-67.5 -78q-32 -99 -32 -148q0 -71 50 -71q61 0 119.5 97t58.5 167q0 66 -51 66z" />
    <glyph glyph-name="seven" unicode="7" horiz-adv-x="447" 
d="M506 717l37 -43q-273 -374 -405 -674h-127q110 262 393 608q-18 -3 -37 -3q-27 0 -151 15l-51 -129h-101l91 226q229 -29 261 -29q53 0 90 29z" />
    <glyph glyph-name="eight" unicode="8" horiz-adv-x="491" 
d="M360 730q73 0 114.5 -37t41.5 -97q0 -64 -42.5 -130.5t-115.5 -90.5q57 -38 57 -119q0 -44 -17 -89.5t-48.5 -86.5t-83.5 -67t-116 -26q-30 0 -58 6t-56.5 21t-46 46.5t-17.5 76.5q0 83 52.5 161t143.5 100q-4 2 -11.5 10t-18 32.5t-10.5 56.5q0 85 62.5 159t169.5 74z
M152 67q48 0 86 34.5t55.5 78t17.5 81.5q0 75 -74 75q-48 0 -87 -35.5t-56.5 -79.5t-17.5 -81q0 -73 76 -73zM290 432q53 0 87.5 54t34.5 105q0 59 -56 59q-54 0 -89 -54.5t-35 -104.5q0 -30 16.5 -44.5t41.5 -14.5z" />
    <glyph glyph-name="nine" unicode="9" horiz-adv-x="479" 
d="M183 250q-57 0 -89 38t-30 106q2 69 35.5 145t99 133.5t142.5 57.5q14 0 29 -2.5t37 -12t38.5 -26t28.5 -48.5t12 -75q0 -75 -29 -173t-76.5 -189t-119 -154t-146.5 -63q-80 0 -114 62t-5 165h106q-8 -17 -13.5 -40t-6.5 -48t9 -42t32 -17q41 0 90 65.5t95 168.5
q-62 -51 -125 -51zM340 650q-61 0 -119.5 -97t-58.5 -167q0 -66 51 -66q35 0 77.5 33t67.5 78q32 99 32 148q0 71 -50 71z" />
    <glyph glyph-name="colon" unicode=":" horiz-adv-x="310" 
d="M253 310q-30 0 -51 21t-21 51t21 51t51 21t51 -21t21 -51t-21 -51t-51 -21zM122 -13q-30 0 -51 21t-21 51t21 51t51 21t51 -21t21 -51t-21 -51t-51 -21z" />
    <glyph glyph-name="semicolon" unicode=";" horiz-adv-x="310" 
d="M253 310q-30 0 -51 21t-21 51t21 51t51 21t51 -21t21 -51t-21 -51t-51 -21zM195 51q0 -34 -19.5 -69t-47 -60t-55 -45.5t-47.5 -30.5l-19 -10l-22 44q100 67 114 111q-21 7 -34.5 25.5t-13.5 41.5q0 30 21 51t51 21q28 0 50 -19.5t22 -59.5z" />
    <glyph glyph-name="less" unicode="&#x3c;" horiz-adv-x="635" 
d="M618 518l-45 -110l-387 -135l279 -135l-34 -83l-394 190l33 83z" />
    <glyph glyph-name="equal" unicode="=" horiz-adv-x="600" 
d="M521 340h-443l37 90h443zM443 142h-443l36 90h443z" />
    <glyph glyph-name="greater" unicode="&#x3e;" horiz-adv-x="635" 
d="M549 328l-33 -83l-548 -190l45 110l388 135l-279 135l33 83z" />
    <glyph glyph-name="question" unicode="?" horiz-adv-x="451" 
d="M121 -13q-30 0 -51 21t-21 51t21 51t51 21t51 -21t21 -51t-21 -51t-51 -21zM334 651q-47 0 -83 -51.5t-36 -116.5h-92q0 33 7 66.5t23 66.5t39.5 58t60.5 40.5t83 15.5q79 0 115.5 -41t36.5 -98q0 -45 -24 -89t-60.5 -81t-74.5 -72.5t-70.5 -75.5t-43.5 -77h-82
q14 49 45.5 96.5t66.5 83.5t68 70t54.5 70t21.5 70q0 29 -14 47t-41 18z" />
    <glyph glyph-name="at" unicode="@" horiz-adv-x="1000" 
d="M732 463l-113 -279q-26 -68 -18.5 -101t43.5 -33q67 0 131.5 100t64.5 212q0 109 -69.5 175t-180.5 66q-107 0 -197.5 -62t-142.5 -165t-52 -222q0 -130 71 -206t201 -76q128 0 225 75l38 -56q-115 -94 -272 -94q-150 0 -250.5 92.5t-100.5 261.5q0 93 33 186t93 170
t153.5 125t203.5 48q67 0 122 -18t92 -48.5t62.5 -71.5t37 -86t11.5 -93q0 -94 -42 -182.5t-108.5 -142t-133.5 -53.5q-32 0 -56 11t-34.5 26.5t-17 31.5t-6.5 27l-1 11q-2 -3 -5.5 -7.5t-16 -16.5t-25.5 -21t-33.5 -16.5t-40.5 -7.5q-37 0 -57 27t-20 66q0 35 15 92.5
t40.5 118t69.5 104t93 43.5q31 0 52 -17t26 -33l5 -17zM595 340q2 27 -11 44t-32 17q-34 0 -70 -55t-57 -119t-21 -100q0 -33 29 -33q19 0 42.5 19.5t37.5 38.5l14 20z" />
    <glyph glyph-name="A" unicode="A" horiz-adv-x="845" 
d="M859 269q11 0 25 -10t18 -21q-66 -116 -120 -156.5t-141 -30.5l-57 -218l-84 77l45 167q-63 24 -167 81q-111 -172 -259 -172q-86 0 -137.5 47.5t-51.5 120.5q0 78 56 129t148 51q93 0 206 -61l233 391q6 10 18.5 31t17.5 29.5t15.5 25t16 23t15 18t16.5 16t17 10t20 7.5
t21 2q40 0 69.5 -32t12.5 -96l-153 -578q63 -4 103.5 25t96.5 124zM420 227q97 -55 145 -78l153 558l-10 4zM120 71q90 0 177 132q-94 49 -162 49q-59 0 -88 -28t-29 -66q0 -35 26.5 -61t75.5 -26z" />
    <glyph glyph-name="B" unicode="B" horiz-adv-x="835" 
d="M118 160q-29 0 -48 -18.5t-19 -40.5t20 -37.5t49 -15.5q53 0 107 61q-69 51 -109 51zM525 36q73 0 111.5 55t38.5 121q0 23 -6.5 45t-25 50.5t-60.5 52t-104 37.5q-44 -112 -62 -153q-33 -79 -65 -130q97 -78 173 -78zM124 -37q-73 0 -113.5 39.5t-40.5 94.5
q0 54 39 96.5t109 42.5q67 0 155 -62q28 47 61 126l114 283q22 55 65.5 92.5t95.5 37.5l19 -63q-6 -2 -16 -7.5t-33.5 -31.5t-38.5 -62l-33 -83q82 -28 156.5 14.5t74.5 132.5q0 67 -49.5 112.5t-137.5 45.5q-63 0 -115 -24t-83 -62t-48 -81t-17 -85q0 -24 6 -48t12 -36
l5 -12l-74 -55q-35 61 -35 143q0 88 41 165t125 127t194 50q121 0 196 -70t75 -173q0 -50 -18 -89.5t-43.5 -60.5t-51.5 -35t-44 -19l-18 -4q5 -2 12.5 -7t27 -23.5t34.5 -40t27.5 -57.5t12.5 -76q0 -61 -24.5 -117.5t-80 -96.5t-131.5 -40q-60 0 -111.5 25t-122.5 80
q-79 -86 -178 -86z" />
    <glyph glyph-name="C" unicode="C" horiz-adv-x="679" 
d="M693 269q11 0 25 -10t18 -21q-78 -134 -178 -214.5t-214 -80.5q-173 0 -173 192q0 76 24 167q-99 29 -147 96.5t-48 145.5q0 73 38 134.5t93 91.5l50 -71q-16 -9 -34.5 -25t-39.5 -53.5t-21 -80.5q0 -51 38 -98t95 -60q29 85 70.5 164.5t92 145t111.5 105t120 39.5
q66 0 103.5 -46t37.5 -114q0 -62 -29.5 -132.5t-90.5 -129.5q-131 -127 -323 -127h-14q-26 -85 -26 -155q0 -109 96 -109q76 0 168 67t158 179zM597 735q-63 0 -139.5 -109t-131.5 -255q140 4 235 103q42 44 66 95t24 94q0 33 -14 52.5t-40 19.5z" />
    <glyph glyph-name="D" unicode="D" horiz-adv-x="926" 
d="M119 236q44 0 82.5 -18.5t91.5 -62.5q36 52 66 127l114 284q22 55 65.5 92.5t95.5 37.5l19 -63q-2 -1 -6 -2.5t-14.5 -9t-21 -17.5t-23 -29t-22.5 -43q-118 -290 -118 -291q-35 -89 -79 -146q81 -62 142 -62q78 0 150.5 69.5t114.5 174.5t42 209q0 119 -59.5 193.5
t-174.5 74.5q-86 0 -154.5 -45.5t-101.5 -106.5t-33 -119q0 -24 6 -47.5t11 -35.5l6 -12l-73 -53q-37 51 -37 144q0 149 111.5 253t271.5 104q146 0 236 -93t90 -254q0 -91 -29.5 -186.5t-81 -175.5t-129.5 -131.5t-165 -51.5q-55 0 -96 20.5t-103 69.5q-81 -71 -184 -71
q-75 0 -117.5 39t-42.5 94q0 54 39.5 97t110.5 43zM130 48q58 0 110 47q-71 65 -122 65q-29 0 -48 -18.5t-19 -40.5q0 -25 21.5 -39t57.5 -14z" />
    <glyph glyph-name="E" unicode="E" horiz-adv-x="618" 
d="M553 515q-52 0 -96 23.5t-73 65.5q-16 -53 -0.5 -110.5t59.5 -88.5l-46 -72q-5 5 -15 11.5t-41 18t-63 11.5q-77 0 -127 -55.5t-50 -133.5q0 -76 48.5 -129.5t127.5 -53.5q51 0 92 23t62 59t28.5 79.5t-9.5 84.5l89 25q23 -76 9 -142.5t-52 -115.5t-97 -77t-127 -28
q-115 0 -193.5 80t-78.5 193q0 122 90 207t211 71q-17 41 -17 94q0 78 45 148q-25 81 -16 171l67 -10q-6 -52 3 -99q73 62 170 62q85 0 131 -46.5t45 -105.5q-1 -65 -49 -112.5t-127 -47.5zM546 734q-78 0 -128 -62q50 -81 130 -81q43 0 67 23.5t24 50.5q0 26 -23.5 47.5
t-69.5 21.5z" />
    <glyph glyph-name="F" unicode="F" horiz-adv-x="691" 
d="M703 648l-100 -245h92l-22 -54h-92l-84 -206q-26 -68 -62.5 -116t-76 -72t-75 -34.5t-71.5 -10.5q-96 0 -154 60.5t-58 144.5q0 87 63 147t154 56v-88q-62 5 -96 -32.5t-34 -84.5q0 -45 32.5 -80.5t91.5 -35.5q72 0 122.5 56.5t89.5 161.5l54 134h-89l22 54h88l111 275
q-59 -1 -174.5 26t-154.5 27q-60 0 -90 -31t-30 -71q0 -35 23 -57.5t57 -22.5q20 0 39 8.5t29 16.5l9 8l44 -66q-5 -5 -14 -13.5t-40 -22t-66 -13.5q-70 0 -118 47t-48 115q0 73 54.5 128.5t150.5 55.5q45 0 185 -31.5t203 -14.5q48 45 104 45l19 -63q-6 -2 -16 -7.5
t-33.5 -31t-38.5 -62.5z" />
    <glyph glyph-name="G" unicode="G" horiz-adv-x="779" 
d="M793 269q11 0 25 -10t18 -21q-104 -182 -310 -281q-46 -117 -70 -156q-59 -97 -147 -97q-51 0 -79 29t-25 76q5 73 113 123q6 3 48.5 21t66.5 30l34 85q-92 -81 -173 -81q-64 0 -92.5 46.5t-28.5 115.5q0 67 24 156q-197 67 -197 251q0 70 37.5 126.5t93.5 87.5l50 -71
q-12 -7 -24 -16t-30 -27t-29.5 -45t-11.5 -59q0 -56 35 -100.5t101 -67.5q30 85 72.5 162t96.5 144t121 107t136 39q76 -1 114.5 -45.5t38.5 -113.5q0 -62 -31 -131.5t-90 -126.5q-136 -132 -346 -132q-27 0 -39 1q-27 -89 -27 -142q0 -78 55 -78q43 0 101.5 43t98.5 96
l34 83l119 35l-118 -290q74 45 136 106.5t99 127.5zM608 479q41 41 65.5 91.5t24.5 95.5q0 69 -61 69q-55 0 -117 -56.5t-111 -136.5t-86 -173q175 0 285 110zM315 -135q-49 -28 -49 -62q0 -12 9 -18.5t20 -6.5q54 0 107 128q-66 -29 -87 -41z" />
    <glyph glyph-name="H" unicode="H" horiz-adv-x="920" 
d="M934 269q11 0 25 -10t18 -21q-23 -41 -42.5 -70t-41 -54.5t-43.5 -40t-47.5 -23t-55 -7.5t-64.5 10l-94 -233l-68 91l72 178q-28 13 -156 81q-98 -184 -253 -184q-81 0 -132.5 48t-51.5 118q0 80 57.5 131t149.5 51q81 0 178 -45l152 378q-60 -2 -153 14t-124 16
q-67 0 -97.5 -30.5t-30.5 -73.5q0 -40 24 -61t56 -21q20 0 39 8.5t29 16.5l9 8l44 -66q-5 -5 -14 -13.5t-40 -22t-66 -13.5q-70 0 -118 46.5t-48 117.5q0 75 54.5 130.5t157.5 55.5q40 0 109.5 -12.5t112 -17t111.5 8.5q51 54 112 54l19 -63q-6 -2 -16 -7.5t-33.5 -31
t-38.5 -62.5l-165 -405q123 -69 151 -84l229 567h106l-244 -603q70 -15 116.5 15t105.5 131zM187 71q98 0 165 142q-87 39 -148 39q-55 0 -85.5 -27.5t-30.5 -67.5q0 -37 28 -61.5t71 -24.5z" />
    <glyph glyph-name="I" unicode="I" horiz-adv-x="575" 
d="M362 215l176 437q-18 -7 -56 -21.5t-64.5 -25t-61 -28.5t-56 -35.5t-36.5 -43.5t-15 -55q0 -38 22 -62.5t58 -24.5v-87q-76 0 -122.5 50t-45.5 120q0 48 22 89t54 68.5t81 53t90 40.5t95 35t83 33q58 84 137 84l19 -63q-6 -2 -16 -7.5t-33.5 -31t-38.5 -62.5l-218 -535
q-26 -68 -62.5 -116t-76 -72t-75 -34.5t-71.5 -10.5q-96 0 -154 60.5t-58 144.5q0 87 63 147t153 56v-88q-61 5 -95 -32.5t-34 -84.5q0 -45 32.5 -80.5t91.5 -35.5q72 0 122.5 56.5t89.5 161.5z" />
    <glyph glyph-name="J" unicode="J" horiz-adv-x="534" 
d="M548 269q11 0 25 -10t18 -21q-48 -82 -102 -125.5t-164 -76.5q-70 -180 -143.5 -254.5t-174.5 -74.5q-58 0 -101.5 36.5t-43.5 100.5q0 39 15.5 71.5t45.5 56.5t63.5 42.5t81 33t85.5 23.5t88 19l213 529q-13 -6 -56.5 -25t-64.5 -29t-59.5 -29.5t-59 -36.5t-43.5 -39
t-33.5 -47t-10.5 -52q0 -45 28 -72.5t72 -27.5v-87q-85 0 -137 53.5t-51 136.5q0 49 25.5 94t61 76.5t92.5 64t100 51t103.5 43.5t85.5 37q56 82 134 82l19 -63q-6 -2 -15.5 -6.5t-32 -28.5t-38.5 -60l-215 -532q132 47 189 147zM11 -207q56 0 102.5 52.5t93.5 161.5
q-43 -10 -73 -18t-67.5 -22.5t-60.5 -29.5t-39 -38t-16 -50q0 -25 16.5 -40.5t43.5 -15.5z" />
    <glyph glyph-name="K" unicode="K" horiz-adv-x="820" 
d="M528 285l-30 8l-61 -150q-26 -68 -62.5 -116t-76 -72t-75 -34.5t-71.5 -10.5q-96 0 -154 60.5t-58 144.5q0 87 63 147t153 56v-88q-61 5 -95 -32.5t-34 -84.5q0 -45 32.5 -80.5t91.5 -35.5q72 0 122.5 56.5t89.5 161.5l164 409q-19 -8 -54 -19t-62 -19.5t-59 -22.5
t-53 -29.5t-35 -39.5t-14 -52q0 -38 22 -62t58 -24v-87q-76 0 -122.5 50t-45.5 120q0 48 20.5 87t52 63t78 45.5t87 34t92 29.5t82.5 30q58 84 137 84l19 -63q-6 -2 -16 -7.5t-33.5 -31t-38.5 -62.5l-120 -294q79 -16 131.5 19t96.5 135l68 171q32 81 89 115t152 15l-17 -75
q-28 2 -49.5 1.5t-41.5 -20.5t-38 -63l-54 -134q-84 -209 -231 -236q78 -51 52 -205l-31 -172q-5 -55 7 -74.5t58 -18.5v-92q-87 -9 -130.5 46t-29.5 147l26 142q18 97 6 148.5t-58 81.5z" />
    <glyph glyph-name="L" unicode="L" horiz-adv-x="730" 
d="M86 207q73 0 147 -56q24 49 64 150q-101 31 -148 97.5t-47 145.5q0 73 38 134.5t93 91.5l50 -71q-16 -9 -34.5 -25t-39.5 -53.5t-21 -80.5q0 -51 37.5 -97.5t100.5 -63.5q34 87 61 147t63 123t71.5 101t81.5 62.5t97 24.5q76 0 115.5 -48.5t39.5 -111.5q0 -62 -31 -132.5
t-92 -130.5q-133 -130 -333 -127q-53 -139 -88 -203q24 -22 67.5 -63.5t78.5 -73.5t65 -56q73 -58 126 -58q60 0 134 71l63 -72q-101 -94 -195 -94q-82 0 -183 79q-45 35 -210 190q-67 -75 -165 -78q-71 -2 -114 39t-43 96t41 99t110 44zM690 733q-123 0 -260 -364
q133 7 229 105q42 44 66 95t24 94q0 70 -59 70zM84 13q54 0 100 61q-55 51 -97 51q-31 0 -48.5 -17t-17.5 -39q0 -23 17 -39.5t46 -16.5z" />
    <glyph glyph-name="M" unicode="M" horiz-adv-x="980" 
d="M455 772l72 -80q81 71 156 71q42 0 68 -25t23 -67q46 49 93.5 70.5t84.5 21.5q41 0 66 -23t25 -63q0 -44 -38 -139l-216 -536q-17 -42 -10 -73.5t46 -54.5l-36 -90q-158 75 -94 247l193 479q44 105 44 125q0 30 -30 30t-73 -26t-79 -65l-236 -587h-105l210 523
q44 105 44 125q0 30 -30 30t-73 -26t-79 -65l-236 -587h-105l273 680q-24 -11 -66.5 -27t-74 -28t-68.5 -30.5t-60.5 -37t-39.5 -45t-16 -56.5q0 -38 22 -62.5t58 -24.5v-87q-76 0 -122.5 50t-45.5 120q0 50 22.5 91.5t56 69t85 53.5t96 42.5t102.5 38.5t93 38z" />
    <glyph glyph-name="N" unicode="N" horiz-adv-x="742" 
d="M455 772l54 -124q137 115 212 115q37 0 61 -23.5t24 -62.5q0 -45 -39 -139l-215 -536q-17 -42 -10 -73.5t46 -54.5l-36 -90q-158 75 -94 247l193 479q44 107 44 125q0 30 -25 30q-33 0 -99 -45.5t-110 -94.5l-216 -538h-105l271 675q-20 -8 -64.5 -23.5t-73.5 -26.5
t-67.5 -30t-61.5 -37t-39.5 -45t-16.5 -57q0 -38 22 -62.5t58 -24.5v-87q-76 0 -122.5 50t-45.5 120q0 50 22.5 91.5t56 69t85 53.5t96 42.5t102.5 38.5t93 38z" />
    <glyph glyph-name="O" unicode="O" horiz-adv-x="687" 
d="M701 269q11 0 25 -10t18 -21q-40 -66 -110 -94.5t-137 -10.5q-64 -102 -142.5 -162.5t-164.5 -60.5q-95 0 -142 64t-47 163q0 103 42.5 230t123.5 239.5t176 153.5q59 72 145 72q73 0 118 -55.5t45 -152.5q0 -98 -32 -213.5t-89 -221.5q60 -16 103.5 12t67.5 68zM404 173
q-2 2 -6.5 5t-16.5 14t-23.5 24t-26 35t-26 46t-22 58t-15.5 70t-3.5 82.5t10.5 96.5q-64 -81 -120 -229.5t-56 -246.5q0 -57 22.5 -96t73.5 -39t106.5 49.5t102.5 130.5zM348 484q0 -164 91 -249q50 97 81.5 208t31.5 171q0 116 -78 116q-53 0 -89.5 -72t-36.5 -174z" />
    <glyph glyph-name="P" unicode="P" horiz-adv-x="650" 
d="M363 549l-85 -209q95 -42 167.5 -16.5t115.5 91t43 139.5q0 88 -61 152.5t-164 64.5q-67 0 -124 -27t-93 -68t-56 -88t-20 -89q0 -23 6 -46.5t12 -35.5l6 -12l-71 -53q-39 58 -39 143q0 66 27.5 130t75.5 114.5t120.5 82t156.5 31.5q141 0 231.5 -85t90.5 -210
q0 -104 -60.5 -191.5t-160.5 -119t-230 25.5l-115 -286h-105l240 596q22 55 65.5 92.5t95.5 37.5l19 -63q-6 -2 -16 -7.5t-33.5 -31.5t-38.5 -62z" />
    <glyph glyph-name="Q" unicode="Q" horiz-adv-x="660" 
d="M651 573q0 -130 -69 -284t-179 -257q142 -132 177 -159q74 -58 125 -58q61 0 135 71l63 -73q-100 -93 -195 -93q-79 0 -183 79q-45 34 -198 174q-94 -62 -192 -62q-83 0 -126.5 40t-43.5 96t42.5 99t114.5 43q97 0 211 -95q93 93 155 235t62 245q0 73 -33.5 122
t-103.5 49q-71 0 -136 -53.5t-100.5 -126t-35.5 -135.5q0 -60 28 -87t80 -36l-25 -78q-89 10 -134.5 61.5t-45.5 139.5q0 100 50.5 193t138.5 151.5t189 58.5q53 0 95 -16.5t66.5 -42.5t40.5 -61.5t21.5 -69.5t5.5 -70zM136 -6q55 0 125 42q-76 68 -140 68q-33 0 -52 -15.5
t-19 -38.5t21 -39.5t65 -16.5z" />
    <glyph glyph-name="R" unicode="R" horiz-adv-x="645" 
d="M363 549l-67 -166q94 -45 162.5 -22t107 83t38.5 132q0 83 -60.5 139t-161.5 56q-67 0 -125 -27t-94.5 -68t-56.5 -88t-20 -89q0 -23 6 -46.5t12 -35.5l6 -12l-71 -53q-39 58 -39 143q0 139 108 248.5t276 109.5q140 0 229 -76.5t89 -200.5q0 -113 -68.5 -200t-179.5 -97
q75 -53 49 -202l-31 -172q-5 -55 8 -77.5t57 -22.5v-85q-87 -8 -130.5 46.5t-29.5 146.5l26 142q19 104 8 153.5t-60 79.5q-39 10 -81 30l-134 -331h-105l240 596q22 55 65.5 92.5t95.5 37.5l19 -63q-6 -2 -16 -7.5t-33.5 -31.5t-38.5 -62z" />
    <glyph glyph-name="S" unicode="S" horiz-adv-x="648" 
d="M73 203q0 -58 28 -106q28 29 83 81.5t139 132.5t131 126q-18 112 -18 178q0 109 47 171t127 62q65 0 101 -38t36 -96q0 -36 -13.5 -70.5t-48.5 -76.5t-55 -63t-74 -73q24 -146 24 -207q0 -140 -83 -227t-215 -87q-110 0 -191 62q-76 -101 -58 -209h-73q-22 129 78 261
q-58 75 -58 178q0 62 22.5 115.5t60.5 87.5t85 53t98.5 17t98.5 -26l-32 -78q-95 39 -167.5 -15t-72.5 -153zM482 224q0 38 -13 123q-53 -51 -158 -152.5t-158 -152.5q55 -40 122 -40q91 0 149 60.5t58 161.5zM534 622q0 -40 8 -99q66 64 95 103.5t29 77.5q0 26 -13 42
t-36 16q-35 0 -59 -37t-24 -103z" />
    <glyph glyph-name="T" unicode="T" horiz-adv-x="616" 
d="M1010 748q0 -3 -2 -9t-12 -21t-26 -26t-50 -20.5t-78 -9.5q-61 0 -150 14l-195 -480q-26 -68 -62.5 -116t-76 -72t-75 -34.5t-71.5 -10.5q-96 0 -154 60.5t-58 144.5q0 87 63 147t153 56v-88q-61 5 -95 -32.5t-34 -85.5q0 -45 32.5 -80t91.5 -35q72 0 122.5 56.5
t89.5 161.5l172 427q-29 6 -91.5 19.5t-95 20.5t-74.5 13t-69 6q-67 0 -96.5 -29t-29.5 -68q0 -36 23 -58t57 -22q20 0 39.5 8.5t28.5 16.5l9 8l44 -66q-5 -5 -14 -13.5t-40 -22t-66 -13.5q-70 0 -118 46.5t-48 117.5q0 73 54 127.5t161 54.5q73 0 278.5 -46t289.5 -46
q38 0 68 7.5t41 14.5l10 7z" />
    <glyph glyph-name="U" unicode="U" horiz-adv-x="818" 
d="M832 269q11 0 25 -10t18 -21q-143 -251 -268 -251q-44 0 -70.5 29t-20.5 91q-118 -145 -216 -145q-31 0 -55.5 14t-40.5 44.5t-10 87.5t38 133l145 359q-18 -7 -56 -21.5t-64.5 -25t-61 -28.5t-56 -35.5t-36.5 -43.5t-15 -55q0 -38 22 -62.5t58 -24.5v-87
q-76 0 -122.5 50t-45.5 120q0 48 22 89t54 68t81 53t90 41t95.5 35t83.5 33q58 84 135 84l19 -63q-6 -2 -15.5 -7t-33 -31.5t-39.5 -64.5l-174 -431q-56 -139 9 -139q57 0 134 85.5t122 171.5l167 415h105l-221 -552q-43 -113 2 -113q38 0 89.5 57.5t106.5 150.5z" />
    <glyph glyph-name="V" unicode="V" horiz-adv-x="769" 
d="M493 650l-120 -544q350 253 393 714l96 16q-3 -38 -5.5 -64t-11 -78t-19.5 -92.5t-31.5 -99t-46 -107t-64.5 -106.5t-86 -107.5t-111 -100.5t-139 -94h-101l141 640q-20 -9 -67.5 -26.5t-81.5 -32.5t-72 -37t-58.5 -52t-20.5 -66q0 -38 22 -62.5t58 -24.5v-87
q-76 0 -122.5 50t-45.5 120q0 48 21.5 88.5t52 67t79.5 52.5t88.5 41t94.5 35t83 32q24 39 63 63t80 24l19 -63q-3 0 -7.5 -1.5t-17 -8t-23.5 -16.5t-22.5 -29t-17.5 -44z" />
    <glyph glyph-name="W" unicode="W" horiz-adv-x="948" 
d="M759 245l178 441q31 78 88.5 109.5t149.5 13.5l-17 -75q-27 2 -48.5 1.5t-41.5 -19t-37 -59.5l-156 -386q-124 -308 -305 -308q-47 0 -74.5 22t-32.5 61q-81 -83 -167 -83q-51 0 -79.5 26t-32.5 88t40 165l153 380q-18 -7 -56 -21.5t-64.5 -25t-61 -28.5t-56 -35.5
t-36.5 -43.5t-15 -55q0 -38 22 -62.5t58 -24.5v-87q-76 0 -122.5 50t-45.5 120q0 48 22 89t54 68t81 53t90 41t95.5 35t83.5 33q25 37 61 60.5t75 23.5l19 -63q-2 -1 -6 -2.5t-15 -9.5t-21.5 -18.5t-23.5 -29.5t-23 -43l-188 -471q-53 -131 8 -131q42 0 91 55.5t88 143.5
l195 483h106l-221 -551q-53 -131 8 -131q44 0 93 58t87 143z" />
    <glyph glyph-name="X" unicode="X" horiz-adv-x="732" 
d="M814 758q49 69 109 85.5t150 -20.5l-34 -69q-32 11 -48.5 13.5t-42.5 -10.5t-52 -49l-314 -443l23 -370q4 -63 29.5 -80.5t66.5 -5.5l18 -91q-27 -9 -54 -9.5t-53.5 9t-47.5 30t-36 58.5t-18 89l-16 247l-67 -95q-21 -29 -34 -46t-45.5 -52.5t-61 -56.5t-69.5 -38.5
t-81 -17.5q-76 0 -126 46t-50 117q0 30 11 60.5t32.5 59t61 46.5t89.5 18v-84q-42 0 -74.5 -27t-32.5 -70q0 -42 25.5 -60.5t56.5 -18.5q15 0 30.5 4.5t30.5 13t29 18.5t28 23.5t25 24t22.5 25t17.5 22t14 18t9 11.5l149 211l-23 364q-19 -8 -68 -26t-83 -33t-73 -37.5
t-60 -53t-21 -66.5q0 -38 22 -62t58 -24v-87q-76 0 -122.5 50t-45.5 120q0 47 21.5 87.5t51.5 67.5t79 53t87.5 40.5t94.5 34.5t83 32q25 40 65.5 64t78.5 24l19 -63q-18 -8 -37 -21.5t-37.5 -42t-16.5 -60.5l15 -238z" />
    <glyph glyph-name="Y" unicode="Y" horiz-adv-x="789" 
d="M803 269q11 0 25 -10t18 -21q-108 -189 -300 -281q-46 -117 -70 -156q-59 -97 -147 -97q-51 0 -79 29t-25 76q5 73 113 123q6 3 48.5 21t66.5 30l40 99q-108 -120 -199 -120q-29 0 -52 14t-38 44.5t-9 87.5t38 133l145 359q-16 -7 -56 -21.5t-66 -24.5t-61 -28.5
t-56 -36.5t-36.5 -44t-15.5 -55q0 -38 22 -62t58 -24v-87q-76 0 -122.5 50t-45.5 120q0 49 22 90t54.5 68t82 53t90.5 41t95.5 35t83.5 33q57 83 135 83l19 -63q-6 -2 -16 -7t-33.5 -31.5t-39.5 -64.5l-173 -431q-14 -35 -20 -61t-5.5 -40.5t5.5 -23.5t11.5 -11.5t13.5 -2.5
q58 0 139.5 88t120.5 169l167 415h105l-276 -686q137 77 223 229zM315 -222q54 0 107 128q-66 -29 -87 -41q-49 -28 -49 -62q0 -12 9 -18.5t20 -6.5z" />
    <glyph glyph-name="Z" unicode="Z" horiz-adv-x="600" 
d="M317 230l339 448q-54 2 -162.5 27.5t-148.5 25.5q-60 0 -90 -31t-30 -71q0 -35 23 -57.5t57 -22.5q20 0 39.5 8.5t28.5 16.5l9 8l44 -66q-5 -5 -14 -13.5t-40 -22t-66 -13.5q-72 0 -119 46t-47 116q0 73 54.5 128.5t150.5 55.5q39 0 96 -11.5t101.5 -22.5t100 -17t90.5 5
q53 45 109 45l19 -63q-24 -10 -41 -24t-47 -53l-377 -497q-47 -62 -81 -103q16 -15 62 -59.5t76.5 -72t58.5 -49.5q74 -58 125 -58q61 0 135 71l63 -72q-101 -94 -195 -94q-80 0 -183 79q-31 24 -66 56t-77 72t-63 59q-83 -74 -171 -75q-68 -1 -111.5 40t-43.5 95
q0 57 41.5 101t108.5 44q47 0 84.5 -18.5t83.5 -54.5q28 34 74 94zM79 12q50 4 102 56q-62 59 -109 59q-26 0 -43.5 -17.5t-17.5 -40.5q0 -24 19 -41.5t49 -15.5z" />
    <glyph glyph-name="bracketleft" unicode="[" horiz-adv-x="385" 
d="M112 -156h-214l417 1032h214l-32 -78h-108l-354 -876h109z" />
    <glyph glyph-name="backslash" unicode="\" horiz-adv-x="370" 
d="M250 -124h-55l-125 960h55z" />
    <glyph glyph-name="bracketright" unicode="]" horiz-adv-x="384" 
d="M356 876h214l-417 -1032h-214l32 78h108l354 876h-109z" />
    <glyph glyph-name="asciicircum" unicode="^" horiz-adv-x="491" 
d="M0 303l341 414h101v-414h-90v288l-234 -288h-118z" />
    <glyph glyph-name="underscore" unicode="_" horiz-adv-x="530" 
d="M-80 -53h531l-24 -59h-531z" />
    <glyph glyph-name="grave" unicode="`" horiz-adv-x="370" 
d="M100 717h117l117 -137h-76z" />
    <glyph glyph-name="a" unicode="a" 
d="M533 269q11 0 25 -10t18 -21q-144 -251 -270 -251q-25 0 -44 8t-27.5 20t-13.5 24t-5 20l-1 8q-2 -3 -6.5 -8.5t-19.5 -19.5t-30.5 -24.5t-38.5 -19t-46 -8.5q-46 0 -71 31.5t-25 80.5q0 44 18 113.5t49.5 142.5t84 125t112.5 52q24 0 42.5 -8.5t28.5 -20t17 -23.5t9 -20
l2 -9l133 68l-136 -337q-19 -48 -24 -78t1.5 -40t20.5 -10q35 0 88.5 60.5t108.5 154.5zM111 74q26 0 55 23t44 46l16 23l83 205v8t-2.5 17t-7.5 21.5t-15 17.5t-24 8q-43 0 -87.5 -66.5t-69.5 -142.5t-25 -119q0 -41 33 -41z" />
    <glyph glyph-name="b" unicode="b" horiz-adv-x="478" 
d="M492 269q11 0 25 -10t18 -21q-45 -78 -100.5 -118.5t-151.5 -41.5q-74 -91 -174 -91q-98 0 -119.5 85.5t45.5 258.5l156 386h105l-97 -240q6 6 16.5 15t40 24.5t57.5 15.5q49 0 73.5 -29.5t24.5 -83.5q0 -50 -21 -127.5t-68 -157.5q59 5 97 40.5t73 94.5zM262 443
q-37 0 -80 -43.5t-43 -118.5q0 -93 81 -132q36 60 61.5 136t25.5 111q0 47 -45 47zM115 58q36 0 73 45q-70 37 -92 109q-48 -154 19 -154z" />
    <glyph glyph-name="c" unicode="c" horiz-adv-x="429" 
d="M443 269q11 0 25 -10t18 -21q-28 -49 -60.5 -90.5t-75.5 -79.5t-96 -59.5t-110 -21.5q-76 0 -116 38.5t-40 111.5q0 55 21.5 122.5t57.5 128.5t91 102.5t114 41.5q82 0 107 -63t-27 -166h-104q59 122 37 139q-6 4 -17 4q-46 0 -90.5 -64t-69 -136.5t-24.5 -114.5
q0 -36 24 -56.5t62 -20.5q67 0 142 59.5t131 155.5z" />
    <glyph glyph-name="d" unicode="d" 
d="M533 269q11 0 25 -10t18 -21q-144 -251 -270 -251q-25 0 -44 8t-27.5 20t-13.5 24t-5 20l-1 8q-2 -3 -6.5 -8.5t-19.5 -19.5t-30.5 -24.5t-38.5 -19t-46 -8.5q-46 0 -71 31.5t-25 80.5q0 44 18 113.5t49.5 142.5t84 125t112.5 52q24 0 42.5 -8.5t28.5 -20t17 -23.5t9 -20
l2 -9l108 266h105l-216 -535q-21 -51 -25 -81t2.5 -38.5t19.5 -8.5q36 0 89.5 60.5t108.5 154.5zM111 74q26 0 55 23t44 46l16 23l83 205v8t-2.5 17t-7.5 21.5t-15 17.5t-24 8q-43 0 -87.5 -66.5t-69.5 -142.5t-25 -119q0 -41 33 -41z" />
    <glyph glyph-name="e" unicode="e" horiz-adv-x="429" 
d="M443 269q11 0 25 -10t18 -21q-28 -49 -60.5 -90.5t-75.5 -79.5t-96 -59.5t-110 -21.5q-76 0 -116 38.5t-40 112.5q0 55 21.5 122.5t58 128.5t91.5 102t115 41q76 0 103.5 -58t-13.5 -148q-38 -79 -101.5 -105.5t-164.5 -15.5q-1 -3 -3 -8.5t-5.5 -21t-4.5 -30t2 -32
t11 -30t25.5 -21t43.5 -8.5q71 0 144.5 58.5t131.5 156.5zM267 446q-39 0 -76.5 -46t-56.5 -92l-18 -46q65 -12 100.5 14t59.5 77q44 93 -9 93z" />
    <glyph glyph-name="f" unicode="f" horiz-adv-x="386" 
d="M400 269q11 0 25 -10t18 -21q-118 -213 -322 -201q3 -28 -2 -58q-17 -101 -66 -189q-59 -104 -141 -104q-37 0 -59 17.5t-26.5 57t22.5 102.5l296 733q44 111 91 156t105 45q61 0 83 -48t-4 -131q-19 -59 -55.5 -144.5t-72.5 -150.5q-43 -78 -84 -109t-127 -34l-23 -56
q36 -32 87 -32q80 0 141.5 43t113.5 134zM342 712q-45 0 -101 -138l-137 -337q37 5 62 28t53 74q93 174 132 306q19 67 -9 67zM58 -16q14 68 -24 80l-105 -258q-18 -47 1 -50q26 -4 54.5 41t47 96t26.5 91z" />
    <glyph glyph-name="g" unicode="g" horiz-adv-x="509" 
d="M523 269q11 0 25 -10t18 -21q-30 -52 -65.5 -95t-64 -69.5t-69 -52t-62 -37t-60.5 -29.5q-13 -34 -29 -71q-36 -84 -78.5 -130.5t-110.5 -46.5q-49 0 -77 27t-25 69q5 76 110 124q16 8 60 27t56 27l30 75l-5 -7.5t-13.5 -16.5t-22.5 -21t-30.5 -16.5t-38.5 -7.5
q-44 0 -68.5 32t-24.5 81q0 34 11 87t34 113t53 111.5t73 86t88 34.5q36 0 66 -20t38 -61l133 68l-199 -490q76 39 137 95.5t111 144.5zM111 74q26 0 55 23t44 46l16 23l83 205v8t-2.5 17t-7.5 21.5t-15 17.5t-24 8q-43 0 -87.5 -66.5t-69.5 -142.5t-25 -119q0 -41 33 -41z
M-16 -195q0 -26 30 -26q25 1 53 30.5t53 94.5q-64 -26 -86 -39q-50 -31 -50 -60z" />
    <glyph glyph-name="h" unicode="h" horiz-adv-x="503" 
d="M517 269q11 0 25 -10t18 -21q-144 -251 -269 -251q-32 0 -53.5 12t-33 38t-4.5 73t33 112l40 99q35 87 35 102q0 22 -28 22q-22 0 -55.5 -19.5t-65.5 -55.5l-150 -370h-105l290 717h105l-101 -251q7 7 19.5 18t48.5 29.5t68 18.5q36 0 59 -20t23 -57q0 -41 -33 -123
l-61 -150q-14 -34 -20 -58.5t-6.5 -37.5t4 -20.5t9 -9.5t10.5 -2q36 0 89.5 60.5t108.5 154.5z" />
    <glyph glyph-name="i" unicode="i" horiz-adv-x="264" 
d="M215 580q-25 0 -43 18t-18 44t18 43.5t43 17.5q26 0 44 -18t18 -43q0 -26 -18.5 -44t-43.5 -18zM278 269q11 0 25 -10t18 -21q-144 -251 -269 -251q-32 0 -53.5 12t-33 38t-4.5 73t33 112l120 297h105l-136 -337q-21 -51 -25 -81t2.5 -38.5t19.5 -8.5q36 0 89.5 60.5
t108.5 154.5z" />
    <glyph glyph-name="j" unicode="j" horiz-adv-x="285" 
d="M247 580q-25 0 -43.5 18t-18.5 44q0 25 18 43t44 18q25 0 43 -17.5t18 -43.5t-18 -44t-43 -18zM299 269q11 0 25 -10t18 -21q-30 -52 -65.5 -95t-64 -69.5t-69.5 -52.5t-62 -36.5t-60 -29.5q-20 -49 -29 -71q-36 -84 -78.5 -130.5t-110.5 -46.5q-49 0 -77 27t-25 69
q5 73 110 124q12 6 57 26.5t58 27.5l108 264q-7 5 -12 11t-6 10l-2 3q18 31 130 250h106l-199 -490q76 39 137 95.5t111 144.5zM-240 -195q0 -12 8.5 -19.5t21.5 -6.5q25 1 53 30.5t53 94.5q-64 -26 -86 -39q-50 -31 -50 -60z" />
    <glyph glyph-name="k" unicode="k" horiz-adv-x="478" 
d="M492 269q11 0 25 -10t18 -21q-50 -90 -140.5 -170.5t-167.5 -80.5q-45 0 -74 31.5t-38 73t-5 86.5q3 37 13 48.5t29 12.5t31 3t31 10t35 27.5t29 49.5q29 68 29 92t-28 24q-22 0 -55 -19t-65 -54l-150 -372h-105l290 717h105l-101 -251q7 7 19.5 18t48.5 29.5t68 18.5
q36 0 59 -20t23 -56q0 -56 -48 -152q-56 -110 -163 -120q-7 -129 47 -129q46 0 119 62.5t121 151.5z" />
    <glyph glyph-name="l" unicode="l" horiz-adv-x="264" 
d="M278 269q11 0 25 -10t18 -21q-144 -251 -269 -251q-32 0 -53.5 12t-33 38t-4.5 73t33 112l200 495h105l-216 -535q-21 -51 -25 -81t2.5 -38.5t19.5 -8.5q36 0 89.5 60.5t108.5 154.5z" />
    <glyph glyph-name="m" unicode="m" horiz-adv-x="740" 
d="M754 269q11 0 25 -10t18 -21q-144 -251 -269 -251q-32 0 -53.5 12t-33 38t-4.5 73t33 112l40 99q35 87 35 102q0 22 -28 22q-22 0 -55.5 -19t-63.5 -54l-151 -372h-105q124 307 130 321q35 87 35 102q0 22 -28 22q-22 0 -55 -19t-64 -54l-150 -372h-105l209 519l84 -52
q71 65 139 65q35 0 57 -21.5t21 -60.5q79 82 157 82q35 0 58 -20t23 -58q0 -41 -33 -122l-61 -150q-14 -34 -20 -58.5t-6.5 -37.5t4 -20.5t9 -9.5t10.5 -2q36 0 89.5 60.5t108.5 154.5z" />
    <glyph glyph-name="n" unicode="n" horiz-adv-x="502" 
d="M516 269q11 0 25 -10t18 -21q-144 -251 -269 -251q-44 0 -68.5 21.5t-24 75.5t34.5 138l40 99q35 87 35 102q0 22 -28 22q-22 0 -55 -19t-64 -54l-150 -372h-105l209 519l84 -52q71 65 139 65q34 0 56 -20t22 -57q0 -40 -33 -123l-61 -150q-14 -34 -20 -58.5t-6.5 -37.5
t4 -20.5t9 -9.5t10.5 -2q36 0 89.5 60.5t108.5 154.5z" />
    <glyph glyph-name="o" unicode="o" horiz-adv-x="491" 
d="M505 269q11 0 25 -10t18 -21q-47 -83 -111.5 -122.5t-137.5 -20.5q-79 -108 -181 -108q-58 0 -94.5 36t-36.5 106q0 40 11.5 91.5t36 106t57.5 100.5t80.5 75.5t99.5 29.5q58 0 94 -36t36 -105q0 -48 -18 -113.5t-49 -124.5q42 -9 86 20t84 96zM124 58q44 0 93 78
q-18 18 -18 44q0 28 21 46.5t49 14.5q40 102 40 161t-41 59t-86.5 -66.5t-73.5 -147t-28 -128.5q0 -28 12 -44.5t32 -16.5z" />
    <glyph glyph-name="p" unicode="p" horiz-adv-x="477" 
d="M491 269q11 0 25 -10t18 -21q-62 -111 -152 -181t-196 -70q-48 0 -83 15.5t-46 31.5l-11 15l39 35q14 -21 33 -21q32 0 75.5 65.5t74.5 146.5t31 128q0 42 -31 42q-25 0 -55 -23t-58 -61l-226 -559h-105l290 717l87 -43q5 6 14 15.5t37 25t56 15.5q44 0 67.5 -33
t23.5 -90q0 -91 -54 -207t-100 -157q139 41 246 224z" />
    <glyph glyph-name="q" unicode="q" horiz-adv-x="517" 
d="M531 269q11 0 25 -10t18 -21q-111 -195 -224 -228q23 -46 2 -118q-60 -206 -179 -206q-37 0 -60 17.5t-29.5 57t20.5 102.5l65 159q-47 -35 -97 -35q-57 0 -79.5 46.5t-8.5 129.5q9 51 30 111.5t53 119.5t77.5 98.5t93.5 39.5q35 0 65 -20.5t39 -60.5l132 68l-185 -456
q58 -14 121 46t121 160zM110 74q26 0 57 24.5t58 63.5l84 208q2 32 -13.5 52.5t-39.5 20.5q-28 0 -58 -32.5t-53 -80t-39 -94.5t-23 -82q-16 -80 27 -80zM290 -93q25 79 -26 96l-80 -197q-17 -44 1 -50q16 -5 33 9.5t31.5 43t23.5 51t17 47.5z" />
    <glyph glyph-name="r" unicode="r" horiz-adv-x="395" 
d="M57 238q-11 0 -25 10t-18 21q37 64 89 178q-31 33 -31 64q0 33 28 64.5t61 41.5l54 -38l-38 -89q6 -6 44.5 -37t56.5 -55.5t18 -53.5q0 -22 -12 -51l-45 -111q-13 -33 -19.5 -57t-7 -37.5t3 -21.5t8 -10t10.5 -2q27 0 68.5 52t106.5 163q11 0 25 -10t18 -21
q-72 -124 -127.5 -187.5t-119.5 -63.5q-31 0 -52 13t-31.5 39.5t-4 73.5t32.5 109l37 90q9 22 9 34q0 14 -11.5 27t-40.5 37q-47 -102 -87 -172z" />
    <glyph glyph-name="s" unicode="s" horiz-adv-x="366" 
d="M57 238q-11 0 -25 10t-18 21q84 144 148 285l84 -35q-12 -48 -16.5 -108t-3.5 -101t4 -91.5t3 -60.5q0 -47 -11 -80q68 35 158 191q11 0 25 -10t18 -21q-33 -58 -58.5 -95t-64.5 -77t-87 -59.5t-106 -19.5q-57 0 -93.5 24.5t-44.5 43.5l55 34q24 -27 57 -27q31 0 45.5 26
t14.5 94q0 15 -2.5 87t-1.5 117q-36 -70 -80 -148z" />
    <glyph glyph-name="t" unicode="t" horiz-adv-x="281" 
d="M295 269q11 0 25 -10t18 -21q-143 -251 -283 -251q-156 0 -61 235l120 297h-92l22 54h92l58 144h105l-58 -144h88l-22 -54h-88l-136 -337q-52 -128 0 -128q42 0 99.5 60t112.5 155z" />
    <glyph glyph-name="u" unicode="u" horiz-adv-x="502" 
d="M516 269q11 0 25 -10t18 -21q-143 -251 -269 -251q-41 0 -66.5 21.5t-26.5 65.5q-78 -87 -147 -87q-30 0 -51 11.5t-33 37t-5.5 73t33.5 113.5l120 297h105l-136 -337q-19 -48 -24 -75.5t0 -35t17 -7.5q40 0 86 58.5t84 132.5l106 264h105l-136 -337q-19 -48 -24 -78
t1.5 -40t20.5 -10q35 0 88.5 60.5t108.5 154.5z" />
    <glyph glyph-name="v" unicode="v" horiz-adv-x="447" 
d="M461 269q11 0 25 -10t18 -21q-35 -61 -79.5 -98.5t-100.5 -48t-117 18.5q-63 -61 -151 -110h-102l114 519h102l-92 -422q222 166 273 422l82 13q-34 -209 -176 -370q50 -23 104.5 3.5t99.5 103.5z" />
    <glyph glyph-name="w" unicode="w" horiz-adv-x="707" 
d="M721 269q11 0 25 -10t18 -21q-52 -91 -124 -129t-154 -3q-94 -119 -193 -119q-40 0 -66 21.5t-29 67.5q-77 -89 -148 -89q-31 0 -52 12t-32.5 38t-5 73t33.5 112l120 297h105l-136 -337q-21 -52 -24.5 -81t1.5 -33t12 -4q42 0 88 57t84 130l108 268h105l-136 -337
q-21 -51 -24 -79t2.5 -33.5t16.5 -5.5q44 0 106 78q-13 18 -13 38q0 30 23.5 48.5t52.5 11.5q62 118 98 279l82 13q-48 -224 -139 -370q45 -23 97.5 3t97.5 104z" />
    <glyph glyph-name="x" unicode="x" horiz-adv-x="518" 
d="M57 238q-11 0 -25 10t-18 21q13 23 38.5 68.5t37.5 65t33.5 50.5t37 44t38 24t46.5 11q40 0 61.5 -25t23 -62.5t-5.5 -80.5l167 174l46 -43l-229 -237q-20 -124 -20 -156q0 -48 28 -48q35 0 100 63.5t116 151.5q11 0 25 -10t18 -21q-62 -109 -137 -180t-150 -71
q-58 0 -82 42t-16 106l-131 -135h-85l231 240q25 161 25 189q0 26 -13 26q-7 0 -14.5 -4t-16.5 -13t-17 -18.5t-18.5 -25t-18.5 -28t-19.5 -32t-18.5 -32t-19 -33.5t-18 -31z" />
    <glyph glyph-name="y" unicode="y" horiz-adv-x="492" 
d="M506 269q11 0 25 -10t18 -21q-30 -52 -65.5 -95t-64 -69.5t-69.5 -52.5t-62 -36.5t-60 -29.5q-13 -34 -29 -71q-36 -84 -78.5 -130.5t-110.5 -46.5q-49 0 -77 27t-25 69q5 72 110 124q12 6 57.5 26t58.5 28l28 68q-6 -7 -15.5 -17.5t-40 -27.5t-59.5 -17t-49.5 12t-32 38
t-5 73.5t33.5 111.5l120 297h105l-136 -337q-19 -48 -24 -75.5t0 -35t17 -7.5q40 0 86 58.5t84 132.5l106 264h105l-199 -490q76 39 137 95.5t111 144.5zM-33 -195q0 -12 8.5 -19.5t21.5 -6.5q25 1 53 30.5t53 94.5q-64 -26 -86 -39q-50 -31 -50 -60z" />
    <glyph glyph-name="z" unicode="z" horiz-adv-x="495" 
d="M57 238q-11 0 -25 10t-18 21q20 34 46 85.5t40 76t35.5 52t46 38.5t56.5 11q24 0 56 -7t56 -13.5t56.5 -6t63.5 13.5l45 -50l-340 -338q31 0 71.5 -23t69.5 -23q86 0 193 184q11 0 25 -10t18 -21q-68 -118 -134 -184.5t-144 -66.5q-34 0 -66 14.5t-50.5 26.5t-48.5 7.5
t-66 -35.5l-45 50l353 351q-16 0 -57.5 14t-67.5 14q-42 0 -68.5 -29.5t-77.5 -120.5q-15 -27 -23 -41z" />
    <glyph glyph-name="braceleft" unicode="{" horiz-adv-x="425" 
d="M139 -156h-45q-46 0 -73.5 16t-34 41.5t-3.5 51.5t14 52q10 25 39.5 86t55.5 113t26 53q33 66 -60 66h-18l29 74h18q101 0 134 115q39 138 62 203q12 35 25 58.5t37 49.5t64.5 39.5t95.5 13.5h50l-31 -77h-29q-46 0 -74 -32.5t-48 -84.5q-13 -32 -38 -108.5t-32 -94.5
q-8 -21 -18 -39t-19.5 -29.5t-20.5 -21.5t-19.5 -15t-19 -9t-16 -5.5t-13.5 -3t-9 -1.5q8 -2 18 -9.5t20.5 -22.5t9.5 -43t-17 -62q-54 -115 -96 -211q-21 -39 -18.5 -62.5t44.5 -23.5h41z" />
    <glyph glyph-name="bar" unicode="|" horiz-adv-x="370" 
d="M214 836v-960h-52v960h52z" />
    <glyph glyph-name="braceright" unicode="}" horiz-adv-x="425" 
d="M370 876h45q46 0 73.5 -16t34 -41.5t3.5 -51.5t-14 -52q-10 -25 -39.5 -86t-55.5 -113t-26 -53q-33 -66 60 -66h18l-29 -74h-18q-101 0 -134 -115q-39 -138 -62 -203q-12 -35 -25 -58.5t-37 -49.5t-64.5 -39.5t-95.5 -13.5h-50l31 77h29q46 0 74 32.5t48 84.5
q13 32 38 108.5t32 94.5q8 21 18 39t19.5 29.5t20.5 21.5t19.5 15t19 9t16 5.5t13.5 3t9 1.5q-8 2 -18 9.5t-20.5 22.5t-9.5 43t17 62q54 115 96 211q21 39 18.5 62.5t-44.5 23.5h-41z" />
    <glyph glyph-name="asciitilde" unicode="~" horiz-adv-x="708" 
d="M594 348l37 -64q-39 -39 -73.5 -56.5t-80.5 -17.5q-54 0 -110.5 31.5t-93.5 31.5q-56 0 -97 -47l-37 65q77 73 159 73q53 0 111.5 -31t92.5 -31q51 0 92 46z" />
    <glyph glyph-name="exclamdown" unicode="&#xa1;" horiz-adv-x="332" 
d="M221 532q30 0 51 -21t21 -51t-21 -51t-51 -21t-51 21t-21 51t21 51t51 21zM136 323h65l-181 -521h-121z" />
    <glyph glyph-name="cent" unicode="&#xa2;" horiz-adv-x="414" 
d="M87 -100h-55l39 98q-82 31 -82 140q0 54 23 127.5t62.5 144t102 121t131.5 54.5l36 89h55l-38 -94q37 -11 57 -39t22 -64t-6 -74t-26 -73h-107q18 27 30.5 60t12.5 63.5t-18 40.5l-173 -429q66 -6 160 75l49 -45q-56 -56 -119 -84t-121 -23zM270 490q-26 -10 -58 -51.5
t-57.5 -95t-45.5 -110t-21 -97t16 -56.5z" />
    <glyph glyph-name="sterling" unicode="&#xa3;" horiz-adv-x="643" 
d="M543 730q61 0 94.5 -33.5t32 -84t-30.5 -110.5h-101q63 130 -8 130q-52 0 -89 -67.5t-56 -164.5h128l-25 -63h-113q-25 -142 -123 -247q45 -15 75 -15q44 0 71.5 36t52.5 101h96q-73 -225 -216 -225q-30 0 -75 14.5t-65 17.5q-40 -30 -86.5 -21t-53.5 49q-7 42 32.5 70.5
t95.5 7.5q68 72 90 212h-83l26 63h66q25 141 92.5 235.5t172.5 94.5z" />
    <glyph glyph-name="currency" unicode="&#xa4;" horiz-adv-x="578" 
d="M525 176l-46 -46l-70 71q-50 -35 -111 -35t-111 35l-71 -71l-46 46l71 70q-35 50 -35 111.5t35 110.5l-71 71l46 46l71 -71q50 35 111 35t111 -35l70 71l46 -46l-71 -71q35 -50 35 -111t-35 -111zM222 282q32 -32 76 -32t75 32t31 76t-31 75t-75 31t-76 -31
q-31 -31 -31 -75t31 -76z" />
    <glyph glyph-name="yen" unicode="&#xa5;" horiz-adv-x="485" 
d="M572 717l-196 -264h77l-26 -63h-97l-38 -51h114l-25 -63h-135l-111 -276h-101l111 276h-126l26 63h118l3 51h-100l25 63h80l20 264h97l-29 -287l198 287h115z" />
    <glyph glyph-name="brokenbar" unicode="&#xa6;" horiz-adv-x="370" 
d="M162 836h52v-428h-52v428zM162 -124v428h52v-428h-52z" />
    <glyph glyph-name="section" unicode="&#xa7;" horiz-adv-x="510" 
d="M336 486q0 20 12.5 35t32.5 18q-11 27 -40 27q-31 0 -48.5 -24.5t-17.5 -54.5q0 -21 13.5 -39.5t33 -34t39 -32.5t33 -43t13.5 -58q0 -49 -30.5 -91.5t-95.5 -58.5q-3 -55 -40.5 -99t-103.5 -44q-78 0 -109 64q-24 53 -1 99q20 37 59 38q22 0 37.5 -15t15.5 -38
q0 -21 -12.5 -36t-32.5 -18q9 -26 40 -26t48.5 24.5t17.5 54.5q0 21 -13.5 39.5t-33 34t-39 32.5t-33 43t-13.5 58q0 48 30.5 90.5t95.5 59.5q3 55 40.5 99t103.5 44q78 0 109 -64q24 -53 1 -99q-19 -38 -59 -38q-23 0 -38 15.5t-15 37.5zM324 270q0 28 -21.5 51t-52 49
t-43.5 52q-27 -7 -41.5 -27t-14.5 -44q0 -28 21.5 -51t51.5 -49t43 -53q27 7 42 27.5t15 44.5z" />
    <glyph glyph-name="dieresis" unicode="&#xa8;" horiz-adv-x="370" 
d="M134 590q-25 0 -43 18t-18 44t17.5 43.5t43.5 17.5t44 -18t18 -43q0 -26 -18 -44t-44 -18zM305 590q-25 0 -43 18t-18 44t18 43.5t43 17.5q26 0 44 -18t18 -43q0 -26 -18.5 -44t-43.5 -18z" />
    <glyph glyph-name="copyright" unicode="&#xa9;" horiz-adv-x="704" 
d="M403 463q59 0 76.5 -48.5t-14.5 -101.5h-72q10 19 15.5 34t8 28.5t-2 20.5t-16.5 7q-28 0 -56.5 -39.5t-43.5 -84.5t-15 -70q0 -42 39 -42q50 0 107 76l34 -26q-28 -45 -69.5 -74t-88.5 -29q-43 0 -66 26.5t-23 71.5q0 47 21.5 103.5t66.5 102t99 45.5zM406 586
q110 0 181 -70.5t71 -178.5q0 -138 -109.5 -244t-247.5 -106q-110 0 -180.5 71t-70.5 178q0 137 109 243.5t247 106.5zM406 532q-117 0 -209.5 -91.5t-92.5 -205.5q0 -87 56.5 -140.5t142.5 -53.5q116 0 208.5 91.5t92.5 204.5q0 84 -54.5 139.5t-143.5 55.5z" />
    <glyph glyph-name="ordfeminine" unicode="&#xaa;" horiz-adv-x="446" 
d="M385 358l28 -34q-40 -29 -79 -29q-32 0 -50 16.5t-20 32.5l-3 17q-5 -7 -15 -18t-39.5 -29.5t-59.5 -18.5q-37 0 -56.5 24.5t-19.5 63.5q0 35 14.5 91t39.5 114.5t67 100t89 41.5q30 0 49.5 -16t24.5 -32l5 -17l107 55l-109 -269q-42 -103 0 -103q13 0 27 10zM177 364
q21 0 44 18.5t35 37.5l13 18l66 163v6t-2 14t-6 17.5t-12 14t-19 6.5q-35 0 -70 -52.5t-55 -113.5t-20 -96q0 -33 26 -33z" />
    <glyph glyph-name="guillemotleft" unicode="&#xab;" horiz-adv-x="749" 
d="M267 76l-155 170l23 58l292 168l-44 -110l-168 -104l83 -107zM505 76l-155 170l23 58l292 168l-44 -110l-168 -104l83 -107z" />
    <glyph glyph-name="logicalnot" unicode="&#xac;" horiz-adv-x="585" 
d="M515 331l-93 -232h-90l57 143h-353l36 89h443z" />
    <glyph glyph-name="registered" unicode="&#xae;" horiz-adv-x="420" 
d="M310 730q79 0 129 -50.5t50 -127.5q0 -98 -77.5 -172.5t-175.5 -74.5q-78 0 -128 50t-50 127q0 98 77 173t175 75zM372 397q9 7 21.5 19.5t34 53t21.5 82.5q0 61 -38.5 99.5t-99.5 38.5q-82 0 -148 -63.5t-66 -145.5q0 -61 39.5 -98.5t99.5 -37.5q15 0 28.5 2t19.5 4l6 2
q-8 9 -8 30q0 14 5 44t5 36q0 22 -22 27l-36 -89h-54l78 194h55l-28 -71q19 -5 34.5 12t15.5 38q0 18 -12.5 28.5t-35.5 10.5q-34 0 -51.5 -20.5t-17.5 -44.5l4 -19l-44 -13q-4 13 -4 31q0 46 34 78t82 32q41 0 68.5 -24.5t27.5 -61.5q0 -57 -61 -81q15 -17 15 -43
q0 -7 -4 -31t-4 -29q4 -11 16 -6t24 16z" />
    <glyph glyph-name="macron" unicode="&#xaf;" horiz-adv-x="370" 
d="M105 685h263l-24 -59h-263z" />
    <glyph glyph-name="degree" unicode="&#xb0;" horiz-adv-x="319" 
d="M244 508q32 0 54.5 22.5t22.5 54.5t-22.5 55t-54.5 23t-55 -23t-23 -55t23 -54.5t55 -22.5zM244 730q59 0 101.5 -42.5t42.5 -102.5q0 -59 -42.5 -101.5t-101.5 -42.5q-60 0 -102.5 42.5t-42.5 101.5q0 60 42.5 102.5t102.5 42.5z" />
    <glyph glyph-name="plusminus" unicode="&#xb1;" horiz-adv-x="585" 
d="M352 356h173l-36 -89h-173l-49 -121h-98l49 121h-172l36 89h172l49 121h98zM-51 0l36 90h443l-36 -90h-443z" />
    <glyph glyph-name="twosuperior" unicode="&#xb2;" horiz-adv-x="314" 
d="M318 658q0 -96 -154 -220l-59 -47h131l-29 -69h-235l31 75q67 43 127 94q113 97 113 160q0 37 -29 37q-28 0 -47.5 -29.5t-20.5 -67.5h-71q1 56 37 105t108 49q49 0 73.5 -24t24.5 -63z" />
    <glyph glyph-name="threesuperior" unicode="&#xb3;" horiz-adv-x="320" 
d="M320 663q0 -37 -24.5 -69.5t-72.5 -48.5q39 -21 39 -72q0 -58 -41.5 -108.5t-115.5 -50.5q-43 0 -67.5 18.5t-29 46t0 53.5t14.5 45h76q-11 -18 -18 -41.5t-0.5 -43.5t31.5 -20q34 0 57.5 34t23.5 67q0 48 -75 40l25 62q28 0 48.5 7.5t31 17t16.5 22t7.5 20t1.5 12.5
q0 34 -30 34q-25 0 -41.5 -21.5t-22.5 -52.5h-71q7 52 42.5 91.5t101.5 39.5q30 0 50.5 -9t28.5 -24t11 -26.5t3 -22.5z" />
    <glyph glyph-name="acute" unicode="&#xb4;" horiz-adv-x="370" 
d="M222 717h117l-158 -137h-76z" />
    <glyph glyph-name="mu" unicode="&#xb5;" horiz-adv-x="502" 
d="M516 269q11 0 25 -10t18 -21q-143 -251 -269 -251q-90 0 -93 87q-78 -87 -146 -87q-23 0 -44 9l-78 -194h-105l290 717h105l-136 -337q-21 -52 -24.5 -81t1.5 -33t12 -4q42 0 89 59t84 132l107 264h105l-136 -337q-19 -48 -24 -78t1.5 -40t20.5 -10q35 0 88.5 60.5
t108.5 154.5z" />
    <glyph glyph-name="paragraph" unicode="&#xb6;" horiz-adv-x="670" 
d="M699 573l-29 -73h-51l-201 -500q-17 -41 -49 -68.5t-71 -27.5l-14 47q4 1 10.5 3.5t22 18.5t27.5 42l195 485h-87l-202 -500q-17 -41 -49 -68.5t-70 -27.5l-14 47q4 1 10 3.5t22 18.5t27 42l83 204h-80q-73 0 -103.5 52.5t-1.5 124.5q30 73 102.5 125t145.5 52h377z" />
    <glyph glyph-name="periodcentered" unicode="&#xb7;" horiz-adv-x="383" 
d="M206 215q-30 0 -51 21t-21 51t21 51t51 21t51 -21t21 -51t-21 -51t-51 -21z" />
    <glyph glyph-name="cedilla" unicode="&#xb8;" horiz-adv-x="370" 
d="M119 -91l49 91h52l-28 -54q24 0 40 -16t16 -46q0 -44 -35 -71t-79 -27.5t-84 12.5l32 49q18 -13 58 -5.5t40 38.5q0 34 -61 29z" />
    <glyph glyph-name="onesuperior" unicode="&#xb9;" horiz-adv-x="260" 
d="M286 738l-167 -416h-72l106 269q-47 -57 -96 -106l-28 32q52 51 98.5 106.5t66.5 84.5l21 30h71z" />
    <glyph glyph-name="ordmasculine" unicode="&#xba;" horiz-adv-x="382" 
d="M305 730q47 0 75.5 -29t28.5 -84q0 -57 -25.5 -129.5t-80 -132.5t-121.5 -60q-46 0 -75 28.5t-29 84.5q0 41 15.5 94.5t43 105t72.5 87t96 35.5zM187 352q48 0 98 103.5t50 170.5q0 47 -33 47q-48 0 -99 -104.5t-51 -168.5q0 -48 35 -48z" />
    <glyph glyph-name="guillemotright" unicode="&#xbb;" horiz-adv-x="749" 
d="M248 472l156 -170l-23 -58l-292 -168l44 110l168 104l-83 107zM486 472l156 -170l-23 -58l-292 -168l44 110l168 104l-83 107z" />
    <glyph glyph-name="onequarter" unicode="&#xbc;" horiz-adv-x="726" 
d="M341 717l-167 -416h-72l106 269q-47 -57 -96 -106l-28 32q52 51 98.5 106.5t67.5 85.5l20 29h71zM499 102h-144l28 66l217 248h98l-99 -247q12 2 21 5.5t12 5.5l3 3l28 -33q-3 -5 -9 -13t-30 -21t-53 -14l-41 -102h-72zM443 168h84l70 178zM626 717h68l-594 -717h-67z
" />
    <glyph glyph-name="onehalf" unicode="&#xbd;" horiz-adv-x="740" 
d="M341 717l-167 -416h-72l106 269q-47 -57 -96 -106l-28 32q52 51 98.5 106.5t67.5 85.5l20 29h71zM628 717h68l-594 -717h-67zM714 336q0 -88 -126 -197l-28 -23q-14 -11 -36 -27t-26 -20h134l-29 -69h-235l31 75l25 17q26 18 61 44.5t70 58t59.5 68.5t24.5 68
q0 35 -29 35q-28 0 -47.5 -29.5t-20.5 -67.5h-71q1 56 37 105t108 49q49 0 73.5 -24t24.5 -63z" />
    <glyph glyph-name="threequarters" unicode="&#xbe;" horiz-adv-x="790" 
d="M561 102h-144l28 66l217 248h98l-99 -247q12 2 21 5.5t12 5.5l3 3l28 -33q-3 -5 -9 -13t-30 -21t-53 -14l-41 -102h-72zM505 168h84l70 178zM683 717h68l-594 -717h-67zM367 648q0 -37 -24.5 -69.5t-72.5 -48.5q39 -20 39 -72q0 -58 -41.5 -108.5t-116.5 -50.5
q-43 0 -67.5 18.5t-28.5 46t0.5 53.5t14.5 45h76q-11 -18 -18 -41.5t-0.5 -43.5t31.5 -20q34 0 57.5 34t23.5 67q0 48 -75 40l25 62q34 0 57.5 10t32.5 26t12 26.5t3 19.5q0 31 -30 31q-25 0 -41.5 -21.5t-22.5 -52.5h-71q8 52 43 91.5t101 39.5q30 0 50.5 -9t28.5 -24
t11 -26.5t3 -22.5z" />
    <glyph glyph-name="questiondown" unicode="&#xbf;" horiz-adv-x="451" 
d="M355 532q30 0 51 -21t21 -51t-21 -51t-51 -21t-51 21t-21 51t21 51t51 21zM142 -132q47 0 83 51.5t36 116.5h92q0 -33 -7 -66.5t-23 -66.5t-39.5 -58t-60.5 -40.5t-83 -15.5q-79 0 -115.5 41t-36.5 98q0 45 24 89t60.5 81t74.5 72.5t70.5 75.5t43.5 77h82
q-14 -49 -45.5 -96.5t-66.5 -83.5t-68 -70t-54.5 -70t-21.5 -70q0 -29 14 -47t41 -18z" />
    <glyph glyph-name="Agrave" unicode="&#xc0;" horiz-adv-x="845" 
d="M601 1009h117l117 -137h-76zM859 269q11 0 25 -10t18 -21q-66 -116 -120 -156.5t-141 -30.5l-57 -218l-84 77l45 167q-63 24 -167 81q-111 -172 -259 -172q-86 0 -137.5 47.5t-51.5 120.5q0 78 56 129t148 51q93 0 206 -61l233 391q6 10 18.5 31t17.5 29.5t15.5 25t16 23
t15 18t16.5 16t17 10t20 7.5t21 2q40 0 69.5 -32t12.5 -96l-153 -578q63 -4 103.5 25t96.5 124zM420 227q97 -55 145 -78l153 558l-10 4zM120 71q90 0 177 132q-94 49 -162 49q-59 0 -88 -28t-29 -66q0 -35 26.5 -61t75.5 -26z" />
    <glyph glyph-name="Aacute" unicode="&#xc1;" horiz-adv-x="845" 
d="M840 1009h117l-158 -137h-76zM859 269q11 0 25 -10t18 -21q-66 -116 -120 -156.5t-141 -30.5l-57 -218l-84 77l45 167q-63 24 -167 81q-111 -172 -259 -172q-86 0 -137.5 47.5t-51.5 120.5q0 78 56 129t148 51q93 0 206 -61l233 391q6 10 18.5 31t17.5 29.5t15.5 25
t16 23t15 18t16.5 16t17 10t20 7.5t21 2q40 0 69.5 -32t12.5 -96l-153 -578q63 -4 103.5 25t96.5 124zM420 227q97 -55 145 -78l153 558l-10 4zM120 71q90 0 177 132q-94 49 -162 49q-59 0 -88 -28t-29 -66q0 -35 26.5 -61t75.5 -26z" />
    <glyph glyph-name="Acircumflex" unicode="&#xc2;" horiz-adv-x="845" 
d="M853 1031l77 -159h-65l-53 90l-121 -90h-89l203 159h48zM859 269q11 0 25 -10t18 -21q-66 -116 -120 -156.5t-141 -30.5l-57 -218l-84 77l45 167q-63 24 -167 81q-111 -172 -259 -172q-86 0 -137.5 47.5t-51.5 120.5q0 78 56 129t148 51q93 0 206 -61l233 391
q6 10 18.5 31t17.5 29.5t15.5 25t16 23t15 18t16.5 16t17 10t20 7.5t21 2q40 0 69.5 -32t12.5 -96l-153 -578q63 -4 103.5 25t96.5 124zM420 227q97 -55 145 -78l153 558l-10 4zM120 71q90 0 177 132q-94 49 -162 49q-59 0 -88 -28t-29 -66q0 -35 26.5 -61t75.5 -26z" />
    <glyph glyph-name="Atilde" unicode="&#xc3;" horiz-adv-x="845" 
d="M657 874l-30 36q27 34 49 50.5t51 16.5q30 0 66 -19t53 -19q33 0 54 35l30 -37q-51 -65 -100 -65q-30 0 -65.5 19t-53.5 19q-29 0 -54 -36zM859 269q11 0 25 -10t18 -21q-66 -116 -120 -156.5t-141 -30.5l-57 -218l-84 77l45 167q-63 24 -167 81q-111 -172 -259 -172
q-86 0 -137.5 47.5t-51.5 120.5q0 78 56 129t148 51q93 0 206 -61l233 391q6 10 18.5 31t17.5 29.5t15.5 25t16 23t15 18t16.5 16t17 10t20 7.5t21 2q40 0 69.5 -32t12.5 -96l-153 -578q63 -4 103.5 25t96.5 124zM420 227q97 -55 145 -78l153 558l-10 4zM120 71
q90 0 177 132q-94 49 -162 49q-59 0 -88 -28t-29 -66q0 -35 26.5 -61t75.5 -26z" />
    <glyph glyph-name="Adieresis" unicode="&#xc4;" horiz-adv-x="845" 
d="M681 872q-25 0 -43 18t-18 44t18 43.5t43 17.5q26 0 44 -18t18 -43q0 -26 -18.5 -44t-43.5 -18zM852 872q-25 0 -43 18t-18 44t17.5 43.5t43.5 17.5t44 -18t18 -43q0 -26 -18 -44t-44 -18zM859 269q11 0 25 -10t18 -21q-66 -116 -120 -156.5t-141 -30.5l-57 -218l-84 77
l45 167q-63 24 -167 81q-111 -172 -259 -172q-86 0 -137.5 47.5t-51.5 120.5q0 78 56 129t148 51q93 0 206 -61l233 391q6 10 18.5 31t17.5 29.5t15.5 25t16 23t15 18t16.5 16t17 10t20 7.5t21 2q40 0 69.5 -32t12.5 -96l-153 -578q63 -4 103.5 25t96.5 124zM420 227
q97 -55 145 -78l153 558l-10 4zM120 71q90 0 177 132q-94 49 -162 49q-59 0 -88 -28t-29 -66q0 -35 26.5 -61t75.5 -26z" />
    <glyph glyph-name="Aring" unicode="&#xc5;" horiz-adv-x="845" 
d="M810 1077q46 0 79 -32.5t33 -78.5t-33 -79t-79 -33t-78.5 33t-32.5 79t32.5 78.5t78.5 32.5zM810 914q22 0 37 15t15 37q0 21 -15 36t-37 15q-21 0 -36 -15t-15 -36q0 -22 15 -37t36 -15zM859 269q11 0 25 -10t18 -21q-66 -116 -120 -156.5t-141 -30.5l-57 -218l-84 77
l45 167q-63 24 -167 81q-111 -172 -259 -172q-86 0 -137.5 47.5t-51.5 120.5q0 78 56 129t148 51q93 0 206 -61l233 391q6 10 18.5 31t17.5 29.5t15.5 25t16 23t15 18t16.5 16t17 10t20 7.5t21 2q40 0 69.5 -32t12.5 -96l-153 -578q63 -4 103.5 25t96.5 124zM420 227
q97 -55 145 -78l153 558l-10 4zM120 71q90 0 177 132q-94 49 -162 49q-59 0 -88 -28t-29 -66q0 -35 26.5 -61t75.5 -26z" />
    <glyph glyph-name="AE" unicode="&#xc6;" horiz-adv-x="1204" 
d="M1139 515q-52 0 -96 23.5t-73 65.5q-16 -53 -0.5 -110.5t59.5 -88.5l-46 -72q-5 5 -15 11.5t-41 18t-63 11.5q-77 0 -127 -55.5t-50 -133.5q0 -76 48.5 -129.5t127.5 -53.5q51 0 92 23t62 59t28.5 79.5t-9.5 84.5l89 25q23 -76 9 -142.5t-52 -115.5t-97 -77t-127 -28
q-70 0 -128 31t-95 84l-51 -192l-84 77l45 167q-63 24 -167 81q-111 -172 -259 -172q-86 0 -137.5 47.5t-51.5 120.5q0 78 56 129t148 51q93 0 206 -61l233 391q6 10 18.5 31t17.5 29.5t15.5 25t16 23t15 18t16.5 16t17 10t20 7.5t21 2q40 0 69.5 -32t12.5 -96l-69 -261
q69 32 144 24q-17 41 -17 94q0 78 45 148q-25 81 -16 171l67 -10q-6 -52 3 -99q73 62 170 62q85 0 131 -46.5t45 -105.5q-1 -65 -49 -112.5t-127 -47.5zM420 227q97 -55 145 -78l153 558l-10 4zM120 71q90 0 177 132q-94 49 -162 49q-59 0 -88 -28t-29 -66q0 -35 26.5 -61
t75.5 -26zM1132 734q-78 0 -128 -62q50 -81 130 -81q43 0 67 23.5t24 50.5q0 26 -23.5 47.5t-69.5 21.5z" />
    <glyph glyph-name="Ccedilla" unicode="&#xc7;" horiz-adv-x="679" 
d="M268 -118l34 64q-131 24 -131 189q0 76 24 167q-99 29 -147 96.5t-48 145.5q0 73 38 134.5t93 91.5l50 -71q-16 -9 -34.5 -25t-39.5 -53.5t-21 -80.5q0 -51 38 -98t95 -60q29 85 70.5 164.5t92 145t111.5 105t120 39.5q66 0 103.5 -46t37.5 -114q0 -62 -29.5 -132.5
t-90.5 -129.5q-131 -127 -323 -127h-14q-26 -85 -26 -155q0 -109 96 -109q76 0 168 67t158 179q11 0 25 -10t18 -21q-76 -132 -174 -211.5t-209 -83.5l-12 -24q24 0 40 -16t16 -46q0 -44 -35 -71t-79 -27.5t-84 12.5l32 49q18 -13 58 -5.5t40 38.5q0 34 -61 29zM597 735
q-63 0 -139.5 -109t-131.5 -255q140 4 235 103q42 44 66 95t24 94q0 33 -14 52.5t-40 19.5z" />
    <glyph glyph-name="Egrave" unicode="&#xc8;" horiz-adv-x="618" 
d="M480 1009h117l117 -137h-76zM553 515q-52 0 -96 23.5t-73 65.5q-16 -53 -0.5 -110.5t59.5 -88.5l-46 -72q-5 5 -15 11.5t-41 18t-63 11.5q-77 0 -127 -55.5t-50 -133.5q0 -76 48.5 -129.5t127.5 -53.5q51 0 92 23t62 59t28.5 79.5t-9.5 84.5l89 25q23 -76 9 -142.5
t-52 -115.5t-97 -77t-127 -28q-115 0 -193.5 80t-78.5 193q0 122 90 207t211 71q-17 41 -17 94q0 78 45 148q-25 81 -16 171l67 -10q-6 -52 3 -99q73 62 170 62q85 0 131 -46.5t45 -105.5q-1 -65 -49 -112.5t-127 -47.5zM546 734q-78 0 -128 -62q50 -81 130 -81
q43 0 67 23.5t24 50.5q0 26 -23.5 47.5t-69.5 21.5z" />
    <glyph glyph-name="Eacute" unicode="&#xc9;" horiz-adv-x="618" 
d="M693 1009h117l-158 -137h-76zM553 515q-52 0 -96 23.5t-73 65.5q-16 -53 -0.5 -110.5t59.5 -88.5l-46 -72q-5 5 -15 11.5t-41 18t-63 11.5q-77 0 -127 -55.5t-50 -133.5q0 -76 48.5 -129.5t127.5 -53.5q51 0 92 23t62 59t28.5 79.5t-9.5 84.5l89 25q23 -76 9 -142.5
t-52 -115.5t-97 -77t-127 -28q-115 0 -193.5 80t-78.5 193q0 122 90 207t211 71q-17 41 -17 94q0 78 45 148q-25 81 -16 171l67 -10q-6 -52 3 -99q73 62 170 62q85 0 131 -46.5t45 -105.5q-1 -65 -49 -112.5t-127 -47.5zM546 734q-78 0 -128 -62q50 -81 130 -81
q43 0 67 23.5t24 50.5q0 26 -23.5 47.5t-69.5 21.5z" />
    <glyph glyph-name="Ecircumflex" unicode="&#xca;" horiz-adv-x="618" 
d="M701 1031l77 -159h-65l-53 90l-121 -90h-89l203 159h48zM553 515q-52 0 -96 23.5t-73 65.5q-16 -53 -0.5 -110.5t59.5 -88.5l-46 -72q-5 5 -15 11.5t-41 18t-63 11.5q-77 0 -127 -55.5t-50 -133.5q0 -76 48.5 -129.5t127.5 -53.5q51 0 92 23t62 59t28.5 79.5t-9.5 84.5
l89 25q23 -76 9 -142.5t-52 -115.5t-97 -77t-127 -28q-115 0 -193.5 80t-78.5 193q0 122 90 207t211 71q-17 41 -17 94q0 78 45 148q-25 81 -16 171l67 -10q-6 -52 3 -99q73 62 170 62q85 0 131 -46.5t45 -105.5q-1 -65 -49 -112.5t-127 -47.5zM546 734q-78 0 -128 -62
q50 -81 130 -81q43 0 67 23.5t24 50.5q0 26 -23.5 47.5t-69.5 21.5z" />
    <glyph glyph-name="Edieresis" unicode="&#xcb;" horiz-adv-x="618" 
d="M541 871q-25 0 -43 18t-18 44q0 25 18 43t43 18q26 0 44 -18t18 -43t-18.5 -43.5t-43.5 -18.5zM712 871q-25 0 -43 18t-18 44q0 25 17.5 43t43.5 18t44 -18t18 -43t-18 -43.5t-44 -18.5zM553 515q-52 0 -96 23.5t-73 65.5q-16 -53 -0.5 -110.5t59.5 -88.5l-46 -72
q-5 5 -15 11.5t-41 18t-63 11.5q-77 0 -127 -55.5t-50 -133.5q0 -76 48.5 -129.5t127.5 -53.5q51 0 92 23t62 59t28.5 79.5t-9.5 84.5l89 25q23 -76 9 -142.5t-52 -115.5t-97 -77t-127 -28q-115 0 -193.5 80t-78.5 193q0 122 90 207t211 71q-17 41 -17 94q0 78 45 148
q-25 81 -16 171l67 -10q-6 -52 3 -99q73 62 170 62q85 0 131 -46.5t45 -105.5q-1 -65 -49 -112.5t-127 -47.5zM546 734q-78 0 -128 -62q50 -81 130 -81q43 0 67 23.5t24 50.5q0 26 -23.5 47.5t-69.5 21.5z" />
    <glyph glyph-name="Igrave" unicode="&#xcc;" horiz-adv-x="575" 
d="M362 215l176 437q-18 -7 -56 -21.5t-64.5 -25t-61 -28.5t-56 -35.5t-36.5 -43.5t-15 -55q0 -38 22 -62.5t58 -24.5v-87q-76 0 -122.5 50t-45.5 120q0 48 22 89t54 68.5t81 53t90 40.5t95 35t83 33q58 84 137 84l19 -63q-6 -2 -16 -7.5t-33.5 -31t-38.5 -62.5l-218 -535
q-26 -68 -62.5 -116t-76 -72t-75 -34.5t-71.5 -10.5q-96 0 -154 60.5t-58 144.5q0 87 63 147t153 56v-88q-61 5 -95 -32.5t-34 -84.5q0 -45 32.5 -80.5t91.5 -35.5q72 0 122.5 56.5t89.5 161.5zM510 1031h117l117 -137h-76z" />
    <glyph glyph-name="Iacute" unicode="&#xcd;" horiz-adv-x="575" 
d="M755 1031h117l-158 -137h-76zM362 215l176 437q-18 -7 -56 -21.5t-64.5 -25t-61 -28.5t-56 -35.5t-36.5 -43.5t-15 -55q0 -38 22 -62.5t58 -24.5v-87q-76 0 -122.5 50t-45.5 120q0 48 22 89t54 68.5t81 53t90 40.5t95 35t83 33q58 84 137 84l19 -63q-6 -2 -16 -7.5
t-33.5 -31t-38.5 -62.5l-218 -535q-26 -68 -62.5 -116t-76 -72t-75 -34.5t-71.5 -10.5q-96 0 -154 60.5t-58 144.5q0 87 63 147t153 56v-88q-61 5 -95 -32.5t-34 -84.5q0 -45 32.5 -80.5t91.5 -35.5q72 0 122.5 56.5t89.5 161.5z" />
    <glyph glyph-name="Icircumflex" unicode="&#xce;" horiz-adv-x="575" 
d="M738 1053l77 -159h-65l-53 90l-121 -90h-89l203 159h48zM362 215l176 437q-18 -7 -56 -21.5t-64.5 -25t-61 -28.5t-56 -35.5t-36.5 -43.5t-15 -55q0 -38 22 -62.5t58 -24.5v-87q-76 0 -122.5 50t-45.5 120q0 48 22 89t54 68.5t81 53t90 40.5t95 35t83 33q58 84 137 84
l19 -63q-6 -2 -16 -7.5t-33.5 -31t-38.5 -62.5l-218 -535q-26 -68 -62.5 -116t-76 -72t-75 -34.5t-71.5 -10.5q-96 0 -154 60.5t-58 144.5q0 87 63 147t153 56v-88q-61 5 -95 -32.5t-34 -84.5q0 -45 32.5 -80.5t91.5 -35.5q72 0 122.5 56.5t89.5 161.5z" />
    <glyph glyph-name="Idieresis" unicode="&#xcf;" horiz-adv-x="575" 
d="M593 894q-25 0 -43 18t-18 44t18 43.5t43 17.5q26 0 44 -18t18 -43q0 -26 -18.5 -44t-43.5 -18zM764 894q-25 0 -43 18t-18 44t17.5 43.5t43.5 17.5t44 -18t18 -43q0 -26 -18 -44t-44 -18zM362 215l176 437q-18 -7 -56 -21.5t-64.5 -25t-61 -28.5t-56 -35.5t-36.5 -43.5
t-15 -55q0 -38 22 -62.5t58 -24.5v-87q-76 0 -122.5 50t-45.5 120q0 48 22 89t54 68.5t81 53t90 40.5t95 35t83 33q58 84 137 84l19 -63q-6 -2 -16 -7.5t-33.5 -31t-38.5 -62.5l-218 -535q-26 -68 -62.5 -116t-76 -72t-75 -34.5t-71.5 -10.5q-96 0 -154 60.5t-58 144.5
q0 87 63 147t153 56v-88q-61 5 -95 -32.5t-34 -84.5q0 -45 32.5 -80.5t91.5 -35.5q72 0 122.5 56.5t89.5 161.5z" />
    <glyph glyph-name="Eth" unicode="&#xd0;" horiz-adv-x="936" 
d="M119 236q44 0 82.5 -18.5t91.5 -62.5q31 46 52 95h-76l32 80h77l95 236q22 55 65.5 92.5t95.5 37.5l19 -63q-2 -1 -6 -2.5t-14.5 -9t-21 -17.5t-23 -29t-22.5 -43q-48 -117 -83 -202h81l-32 -80h-81q-32 -89 -82 -155q81 -62 142 -62q78 0 150.5 69.5t114.5 174.5t42 209
q0 119 -59.5 193.5t-174.5 74.5q-86 0 -154.5 -45.5t-101.5 -106.5t-33 -119q0 -24 6 -47.5t11 -35.5l6 -12l-73 -53q-37 51 -37 144q0 149 111.5 253t271.5 104q146 0 236 -93t90 -254q0 -91 -29.5 -186.5t-81 -175.5t-129.5 -131.5t-165 -51.5q-55 0 -96 20.5t-103 69.5
q-81 -71 -184 -71q-75 0 -117.5 39t-42.5 94q0 54 39.5 97t110.5 43zM130 48q58 0 110 47q-71 65 -122 65q-29 0 -48 -18.5t-19 -40.5q0 -25 21.5 -39t57.5 -14z" />
    <glyph glyph-name="Ntilde" unicode="&#xd1;" horiz-adv-x="742" 
d="M557 832l-30 36q27 34 49 50.5t51 16.5q30 0 66 -19t53 -19q33 0 54 35l30 -37q-51 -65 -100 -65q-30 0 -65.5 19t-53.5 19q-29 0 -54 -36zM455 772l54 -124q137 115 212 115q37 0 61 -23.5t24 -62.5q0 -45 -39 -139l-215 -536q-17 -42 -10 -73.5t46 -54.5l-36 -90
q-158 75 -94 247l193 479q44 107 44 125q0 30 -25 30q-33 0 -99 -45.5t-110 -94.5l-216 -538h-105l271 675q-20 -8 -64.5 -23.5t-73.5 -26.5t-67.5 -30t-61.5 -37t-39.5 -45t-16.5 -57q0 -38 22 -62.5t58 -24.5v-87q-76 0 -122.5 50t-45.5 120q0 50 22.5 91.5t56 69t85 53.5
t96 42.5t102.5 38.5t93 38z" />
    <glyph glyph-name="Ograve" unicode="&#xd2;" horiz-adv-x="687" 
d="M351 1009h117l117 -137h-76zM701 269q11 0 25 -10t18 -21q-40 -66 -110 -94.5t-137 -10.5q-64 -102 -142.5 -162.5t-164.5 -60.5q-95 0 -142 64t-47 163q0 103 42.5 230t123.5 239.5t176 153.5q59 72 145 72q73 0 118 -55.5t45 -152.5q0 -98 -32 -213.5t-89 -221.5
q60 -16 103.5 12t67.5 68zM404 173q-2 2 -6.5 5t-16.5 14t-23.5 24t-26 35t-26 46t-22 58t-15.5 70t-3.5 82.5t10.5 96.5q-64 -81 -120 -229.5t-56 -246.5q0 -57 22.5 -96t73.5 -39t106.5 49.5t102.5 130.5zM348 484q0 -164 91 -249q50 97 81.5 208t31.5 171q0 116 -78 116
q-53 0 -89.5 -72t-36.5 -174z" />
    <glyph glyph-name="Oacute" unicode="&#xd3;" horiz-adv-x="687" 
d="M569 1009h117l-158 -137h-76zM701 269q11 0 25 -10t18 -21q-40 -66 -110 -94.5t-137 -10.5q-64 -102 -142.5 -162.5t-164.5 -60.5q-95 0 -142 64t-47 163q0 103 42.5 230t123.5 239.5t176 153.5q59 72 145 72q73 0 118 -55.5t45 -152.5q0 -98 -32 -213.5t-89 -221.5
q60 -16 103.5 12t67.5 68zM404 173q-2 2 -6.5 5t-16.5 14t-23.5 24t-26 35t-26 46t-22 58t-15.5 70t-3.5 82.5t10.5 96.5q-64 -81 -120 -229.5t-56 -246.5q0 -57 22.5 -96t73.5 -39t106.5 49.5t102.5 130.5zM348 484q0 -164 91 -249q50 97 81.5 208t31.5 171q0 116 -78 116
q-53 0 -89.5 -72t-36.5 -174z" />
    <glyph glyph-name="Ocircumflex" unicode="&#xd4;" horiz-adv-x="687" 
d="M602 1031l77 -159h-65l-53 90l-121 -90h-89l203 159h48zM701 269q11 0 25 -10t18 -21q-40 -66 -110 -94.5t-137 -10.5q-64 -102 -142.5 -162.5t-164.5 -60.5q-95 0 -142 64t-47 163q0 103 42.5 230t123.5 239.5t176 153.5q59 72 145 72q73 0 118 -55.5t45 -152.5
q0 -98 -32 -213.5t-89 -221.5q60 -16 103.5 12t67.5 68zM404 173q-2 2 -6.5 5t-16.5 14t-23.5 24t-26 35t-26 46t-22 58t-15.5 70t-3.5 82.5t10.5 96.5q-64 -81 -120 -229.5t-56 -246.5q0 -57 22.5 -96t73.5 -39t106.5 49.5t102.5 130.5zM348 484q0 -164 91 -249
q50 97 81.5 208t31.5 171q0 116 -78 116q-53 0 -89.5 -72t-36.5 -174z" />
    <glyph glyph-name="Otilde" unicode="&#xd5;" horiz-adv-x="687" 
d="M417 874l-30 36q27 34 49 50.5t51 16.5q30 0 66 -19t53 -19q33 0 54 35l30 -37q-51 -65 -100 -65q-30 0 -65.5 19t-53.5 19q-29 0 -54 -36zM701 269q11 0 25 -10t18 -21q-40 -66 -110 -94.5t-137 -10.5q-64 -102 -142.5 -162.5t-164.5 -60.5q-95 0 -142 64t-47 163
q0 103 42.5 230t123.5 239.5t176 153.5q59 72 145 72q73 0 118 -55.5t45 -152.5q0 -98 -32 -213.5t-89 -221.5q60 -16 103.5 12t67.5 68zM404 173q-2 2 -6.5 5t-16.5 14t-23.5 24t-26 35t-26 46t-22 58t-15.5 70t-3.5 82.5t10.5 96.5q-64 -81 -120 -229.5t-56 -246.5
q0 -57 22.5 -96t73.5 -39t106.5 49.5t102.5 130.5zM348 484q0 -164 91 -249q50 97 81.5 208t31.5 171q0 116 -78 116q-53 0 -89.5 -72t-36.5 -174z" />
    <glyph glyph-name="Odieresis" unicode="&#xd6;" horiz-adv-x="687" 
d="M447 872q-25 0 -43 18t-18 44t18 43.5t43 17.5q26 0 44 -18t18 -43q0 -26 -18.5 -44t-43.5 -18zM618 872q-25 0 -43 18t-18 44t17.5 43.5t43.5 17.5t44 -18t18 -43q0 -26 -18 -44t-44 -18zM701 269q11 0 25 -10t18 -21q-40 -66 -110 -94.5t-137 -10.5
q-64 -102 -142.5 -162.5t-164.5 -60.5q-95 0 -142 64t-47 163q0 103 42.5 230t123.5 239.5t176 153.5q59 72 145 72q73 0 118 -55.5t45 -152.5q0 -98 -32 -213.5t-89 -221.5q60 -16 103.5 12t67.5 68zM404 173q-2 2 -6.5 5t-16.5 14t-23.5 24t-26 35t-26 46t-22 58t-15.5 70
t-3.5 82.5t10.5 96.5q-64 -81 -120 -229.5t-56 -246.5q0 -57 22.5 -96t73.5 -39t106.5 49.5t102.5 130.5zM348 484q0 -164 91 -249q50 97 81.5 208t31.5 171q0 116 -78 116q-53 0 -89.5 -72t-36.5 -174z" />
    <glyph glyph-name="multiply" unicode="&#xd7;" horiz-adv-x="586" 
d="M215 464l68 -114l186 132l44 -75l-186 -131q13 -22 39.5 -66.5t35.5 -59.5l-75 -53l-75 125l-179 -127l-44 73l179 128l-68 114z" />
    <glyph glyph-name="Oslash" unicode="&#xd8;" horiz-adv-x="687" 
d="M701 269q11 0 25 -10t18 -21q-40 -66 -110 -94.5t-137 -10.5q-150 -238 -329 -222l-34 -84h-55l39 95q-52 19 -84.5 73.5t-32.5 141.5q0 103 42.5 230t123.5 239.5t176 153.5q59 72 142 72l25 62h55l-28 -69q47 -16 80.5 -64t33.5 -137q0 -98 -32 -213.5t-89 -221.5
q60 -16 103.5 12t67.5 68zM405 173q-2 2 -6.5 5t-16.5 14t-23.5 24t-26.5 35t-26.5 46t-22 58t-15.5 70t-3.5 82.5t10.5 96.5q-64 -81 -120 -229.5t-56 -246.5q0 -57 22.5 -96t73.5 -39t106.5 49.5t103.5 130.5zM348 484q0 -164 91 -249q50 97 81.5 208t31.5 171
q0 116 -78 116q-53 0 -89.5 -72t-36.5 -174z" />
    <glyph glyph-name="Ugrave" unicode="&#xd9;" horiz-adv-x="818" 
d="M552 967h117l117 -137h-76zM832 269q11 0 25 -10t18 -21q-143 -251 -268 -251q-44 0 -70.5 29t-20.5 91q-118 -145 -216 -145q-31 0 -55.5 14t-40.5 44.5t-10 87.5t38 133l145 359q-18 -7 -56 -21.5t-64.5 -25t-61 -28.5t-56 -35.5t-36.5 -43.5t-15 -55q0 -38 22 -62.5
t58 -24.5v-87q-76 0 -122.5 50t-45.5 120q0 48 22 89t54 68t81 53t90 41t95.5 35t83.5 33q58 84 135 84l19 -63q-6 -2 -15.5 -7t-33 -31.5t-39.5 -64.5l-174 -431q-56 -139 9 -139q57 0 134 85.5t122 171.5l167 415h105l-221 -552q-43 -113 2 -113q38 0 89.5 57.5
t106.5 150.5z" />
    <glyph glyph-name="Uacute" unicode="&#xda;" horiz-adv-x="818" 
d="M753 967h117l-158 -137h-76zM832 269q11 0 25 -10t18 -21q-143 -251 -268 -251q-44 0 -70.5 29t-20.5 91q-118 -145 -216 -145q-31 0 -55.5 14t-40.5 44.5t-10 87.5t38 133l145 359q-18 -7 -56 -21.5t-64.5 -25t-61 -28.5t-56 -35.5t-36.5 -43.5t-15 -55q0 -38 22 -62.5
t58 -24.5v-87q-76 0 -122.5 50t-45.5 120q0 48 22 89t54 68t81 53t90 41t95.5 35t83.5 33q58 84 135 84l19 -63q-6 -2 -15.5 -7t-33 -31.5t-39.5 -64.5l-174 -431q-56 -139 9 -139q57 0 134 85.5t122 171.5l167 415h105l-221 -552q-43 -113 2 -113q38 0 89.5 57.5
t106.5 150.5z" />
    <glyph glyph-name="Ucircumflex" unicode="&#xdb;" horiz-adv-x="818" 
d="M777 989l77 -159h-65l-53 90l-121 -90h-89l203 159h48zM832 269q11 0 25 -10t18 -21q-143 -251 -268 -251q-44 0 -70.5 29t-20.5 91q-118 -145 -216 -145q-31 0 -55.5 14t-40.5 44.5t-10 87.5t38 133l145 359q-18 -7 -56 -21.5t-64.5 -25t-61 -28.5t-56 -35.5
t-36.5 -43.5t-15 -55q0 -38 22 -62.5t58 -24.5v-87q-76 0 -122.5 50t-45.5 120q0 48 22 89t54 68t81 53t90 41t95.5 35t83.5 33q58 84 135 84l19 -63q-6 -2 -15.5 -7t-33 -31.5t-39.5 -64.5l-174 -431q-56 -139 9 -139q57 0 134 85.5t122 171.5l167 415h105l-221 -552
q-43 -113 2 -113q38 0 89.5 57.5t106.5 150.5z" />
    <glyph glyph-name="Udieresis" unicode="&#xdc;" horiz-adv-x="818" 
d="M614 830q-25 0 -43 18t-18 44t17.5 43.5t43.5 17.5t44 -18t18 -43q0 -26 -18 -44t-44 -18zM785 830q-25 0 -43 18t-18 44t18 43.5t43 17.5q26 0 44 -18t18 -43q0 -26 -18.5 -44t-43.5 -18zM832 269q11 0 25 -10t18 -21q-143 -251 -268 -251q-44 0 -70.5 29t-20.5 91
q-118 -145 -216 -145q-31 0 -55.5 14t-40.5 44.5t-10 87.5t38 133l145 359q-18 -7 -56 -21.5t-64.5 -25t-61 -28.5t-56 -35.5t-36.5 -43.5t-15 -55q0 -38 22 -62.5t58 -24.5v-87q-76 0 -122.5 50t-45.5 120q0 48 22 89t54 68t81 53t90 41t95.5 35t83.5 33q58 84 135 84
l19 -63q-6 -2 -15.5 -7t-33 -31.5t-39.5 -64.5l-174 -431q-56 -139 9 -139q57 0 134 85.5t122 171.5l167 415h105l-221 -552q-43 -113 2 -113q38 0 89.5 57.5t106.5 150.5z" />
    <glyph glyph-name="Yacute" unicode="&#xdd;" horiz-adv-x="789" 
d="M753 968h117l-158 -137h-76zM803 269q11 0 25 -10t18 -21q-108 -189 -300 -281q-46 -117 -70 -156q-59 -97 -147 -97q-51 0 -79 29t-25 76q5 73 113 123q6 3 48.5 21t66.5 30l40 99q-108 -120 -199 -120q-29 0 -52 14t-38 44.5t-9 87.5t38 133l145 359q-16 -7 -56 -21.5
t-66 -24.5t-61 -28.5t-56 -36.5t-36.5 -44t-15.5 -55q0 -38 22 -62t58 -24v-87q-76 0 -122.5 50t-45.5 120q0 49 22 90t54.5 68t82 53t90.5 41t95.5 35t83.5 33q57 83 135 83l19 -63q-6 -2 -16 -7t-33.5 -31.5t-39.5 -64.5l-173 -431q-14 -35 -20 -61t-5.5 -40.5t5.5 -23.5
t11.5 -11.5t13.5 -2.5q58 0 139.5 88t120.5 169l167 415h105l-276 -686q137 77 223 229zM315 -222q54 0 107 128q-66 -29 -87 -41q-49 -28 -49 -62q0 -12 9 -18.5t20 -6.5z" />
    <glyph glyph-name="Thorn" unicode="&#xde;" horiz-adv-x="716" 
d="M566 790q-5 -2 -12.5 -6t-27.5 -23t-35 -45q100 -28 159.5 -105t59.5 -176q0 -104 -60 -191.5t-160 -119t-230 24.5l-65 -162h-105l265 659q-112 -11 -186.5 -95.5t-74.5 -174.5q0 -23 6 -46.5t12 -35.5l6 -12l-71 -53q-39 58 -39 143q0 66 27.5 130t75.5 114.5t121 82
t157 31.5q23 53 65.5 88t92.5 35zM612 431q0 70 -41 128t-114 79l-170 -422q95 -42 167 -15.5t115 91.5t43 139z" />
    <glyph glyph-name="germandbls" unicode="&#xdf;" horiz-adv-x="493" 
d="M507 269q11 0 25 -10t18 -21q-62 -109 -157.5 -180t-205.5 -71q-40 0 -71.5 15.5t-42.5 31.5l-11 15l37 30q23 -28 63 -28q64 0 105.5 61.5t41.5 124.5q0 45 -26.5 74.5t-80.5 29.5l26 64q70 18 117 86t47 122q0 35 -33 35q-87 0 -180 -230l-205 -508h-106l197 488
q28 68 52.5 116t62 102t85 82.5t102.5 28.5q58 0 87.5 -29.5t29.5 -80.5q0 -72 -46.5 -140.5t-105.5 -98.5q74 -45 74 -139q0 -31 -9.5 -64.5t-17 -48.5t-12.5 -22q82 62 140 165z" />
    <glyph glyph-name="agrave" unicode="&#xe0;" 
d="M199 717h117l117 -137h-76zM533 269q11 0 25 -10t18 -21q-144 -251 -270 -251q-25 0 -44 8t-27.5 20t-13.5 24t-5 20l-1 8q-2 -3 -6.5 -8.5t-19.5 -19.5t-30.5 -24.5t-38.5 -19t-46 -8.5q-46 0 -71 31.5t-25 80.5q0 44 18 113.5t49.5 142.5t84 125t112.5 52
q24 0 42.5 -8.5t28.5 -20t17 -23.5t9 -20l2 -9l133 68l-136 -337q-19 -48 -24 -78t1.5 -40t20.5 -10q35 0 88.5 60.5t108.5 154.5zM111 74q26 0 55 23t44 46l16 23l83 205v8t-2.5 17t-7.5 21.5t-15 17.5t-24 8q-43 0 -87.5 -66.5t-69.5 -142.5t-25 -119q0 -41 33 -41z" />
    <glyph glyph-name="aacute" unicode="&#xe1;" 
d="M354 717h117l-158 -137h-76zM533 269q11 0 25 -10t18 -21q-144 -251 -270 -251q-25 0 -44 8t-27.5 20t-13.5 24t-5 20l-1 8q-2 -3 -6.5 -8.5t-19.5 -19.5t-30.5 -24.5t-38.5 -19t-46 -8.5q-46 0 -71 31.5t-25 80.5q0 44 18 113.5t49.5 142.5t84 125t112.5 52
q24 0 42.5 -8.5t28.5 -20t17 -23.5t9 -20l2 -9l133 68l-136 -337q-19 -48 -24 -78t1.5 -40t20.5 -10q35 0 88.5 60.5t108.5 154.5zM111 74q26 0 55 23t44 46l16 23l83 205v8t-2.5 17t-7.5 21.5t-15 17.5t-24 8q-43 0 -87.5 -66.5t-69.5 -142.5t-25 -119q0 -41 33 -41z" />
    <glyph glyph-name="acircumflex" unicode="&#xe2;" 
d="M408 728l77 -159h-65l-53 90l-121 -90h-89l203 159h48zM533 269q11 0 25 -10t18 -21q-144 -251 -270 -251q-25 0 -44 8t-27.5 20t-13.5 24t-5 20l-1 8q-2 -3 -6.5 -8.5t-19.5 -19.5t-30.5 -24.5t-38.5 -19t-46 -8.5q-46 0 -71 31.5t-25 80.5q0 44 18 113.5t49.5 142.5
t84 125t112.5 52q24 0 42.5 -8.5t28.5 -20t17 -23.5t9 -20l2 -9l133 68l-136 -337q-19 -48 -24 -78t1.5 -40t20.5 -10q35 0 88.5 60.5t108.5 154.5zM111 74q26 0 55 23t44 46l16 23l83 205v8t-2.5 17t-7.5 21.5t-15 17.5t-24 8q-43 0 -87.5 -66.5t-69.5 -142.5t-25 -119
q0 -41 33 -41z" />
    <glyph glyph-name="atilde" unicode="&#xe3;" 
d="M238 601l-30 36q27 34 49 50.5t51 16.5q30 0 66 -19t53 -19q33 0 54 35l30 -37q-51 -65 -100 -65q-30 0 -65.5 19t-53.5 19q-29 0 -54 -36zM533 269q11 0 25 -10t18 -21q-144 -251 -270 -251q-25 0 -44 8t-27.5 20t-13.5 24t-5 20l-1 8q-2 -3 -6.5 -8.5t-19.5 -19.5
t-30.5 -24.5t-38.5 -19t-46 -8.5q-46 0 -71 31.5t-25 80.5q0 44 18 113.5t49.5 142.5t84 125t112.5 52q24 0 42.5 -8.5t28.5 -20t17 -23.5t9 -20l2 -9l133 68l-136 -337q-19 -48 -24 -78t1.5 -40t20.5 -10q35 0 88.5 60.5t108.5 154.5zM111 74q26 0 55 23t44 46l16 23
l83 205v8t-2.5 17t-7.5 21.5t-15 17.5t-24 8q-43 0 -87.5 -66.5t-69.5 -142.5t-25 -119q0 -41 33 -41z" />
    <glyph glyph-name="adieresis" unicode="&#xe4;" 
d="M267 590q-25 0 -43 18t-18 44t18 43.5t43 17.5q26 0 44 -18t18 -43q0 -26 -18.5 -44t-43.5 -18zM438 590q-25 0 -43 18t-18 44t17.5 43.5t43.5 17.5t44 -18t18 -43q0 -26 -18 -44t-44 -18zM533 269q11 0 25 -10t18 -21q-144 -251 -270 -251q-25 0 -44 8t-27.5 20
t-13.5 24t-5 20l-1 8q-2 -3 -6.5 -8.5t-19.5 -19.5t-30.5 -24.5t-38.5 -19t-46 -8.5q-46 0 -71 31.5t-25 80.5q0 44 18 113.5t49.5 142.5t84 125t112.5 52q24 0 42.5 -8.5t28.5 -20t17 -23.5t9 -20l2 -9l133 68l-136 -337q-19 -48 -24 -78t1.5 -40t20.5 -10q35 0 88.5 60.5
t108.5 154.5zM111 74q26 0 55 23t44 46l16 23l83 205v8t-2.5 17t-7.5 21.5t-15 17.5t-24 8q-43 0 -87.5 -66.5t-69.5 -142.5t-25 -119q0 -41 33 -41z" />
    <glyph glyph-name="aring" unicode="&#xe5;" 
d="M368 789q46 0 79 -32.5t33 -78.5t-33 -79t-79 -33t-78.5 33t-32.5 79t32.5 78.5t78.5 32.5zM368 626q22 0 37 15t15 37q0 21 -15 36t-37 15q-21 0 -36 -15t-15 -36q0 -22 15 -37t36 -15zM533 269q11 0 25 -10t18 -21q-144 -251 -270 -251q-25 0 -44 8t-27.5 20t-13.5 24
t-5 20l-1 8q-2 -3 -6.5 -8.5t-19.5 -19.5t-30.5 -24.5t-38.5 -19t-46 -8.5q-46 0 -71 31.5t-25 80.5q0 44 18 113.5t49.5 142.5t84 125t112.5 52q24 0 42.5 -8.5t28.5 -20t17 -23.5t9 -20l2 -9l133 68l-136 -337q-19 -48 -24 -78t1.5 -40t20.5 -10q35 0 88.5 60.5
t108.5 154.5zM111 74q26 0 55 23t44 46l16 23l83 205v8t-2.5 17t-7.5 21.5t-15 17.5t-24 8q-43 0 -87.5 -66.5t-69.5 -142.5t-25 -119q0 -41 33 -41z" />
    <glyph glyph-name="ae" unicode="&#xe6;" horiz-adv-x="688" 
d="M702 269q11 0 25 -10t18 -21q-28 -49 -60.5 -90.5t-75.5 -79.5t-96 -59.5t-110 -21.5q-134 0 -153 114q-86 -114 -176 -114q-46 0 -71 31.5t-25 80.5q0 44 18 113.5t49.5 142.5t84 125t112.5 52q24 0 42.5 -8.5t28.5 -20t17 -23.5t9 -20l2 -9l75 38q56 43 117 43
q76 0 103.5 -58t-13.5 -148q-38 -79 -101.5 -105.5t-164.5 -15.5q-1 -3 -3 -8.5t-5.5 -21t-4.5 -30t2 -32t11 -30t25.5 -21t43.5 -8.5q71 0 144.5 58.5t131.5 156.5zM111 74q26 0 55 23t44 46l16 23l83 205v8t-2.5 17t-7.5 21.5t-15 17.5t-24 8q-43 0 -87.5 -66.5
t-69.5 -142.5t-25 -119q0 -41 33 -41zM526 446q-39 0 -76.5 -46t-55.5 -92l-19 -46q65 -12 100.5 14t59.5 77q44 93 -9 93z" />
    <glyph glyph-name="ccedilla" unicode="&#xe7;" horiz-adv-x="429" 
d="M54 -91l44 82q-110 21 -110 146q0 55 21.5 122.5t57.5 128.5t91 102.5t114 41.5q82 0 107 -63t-27 -166h-104q59 122 37 139q-6 4 -17 4q-46 0 -90.5 -64t-69 -136.5t-24.5 -114.5q0 -36 24 -56.5t62 -20.5q67 0 142 59.5t131 155.5q11 0 25 -10t18 -21
q-143 -247 -338 -251l-21 -41q24 0 40 -16t16 -46q0 -44 -35 -71t-79 -27.5t-84 12.5l32 49q18 -13 58 -5.5t40 38.5q0 34 -61 29z" />
    <glyph glyph-name="egrave" unicode="&#xe8;" horiz-adv-x="429" 
d="M443 269q11 0 25 -10t18 -21q-28 -49 -60.5 -90.5t-75.5 -79.5t-96 -59.5t-110 -21.5q-76 0 -116 38.5t-40 112.5q0 55 21.5 122.5t58 128.5t91.5 102t115 41q76 0 103.5 -58t-13.5 -148q-38 -79 -101.5 -105.5t-164.5 -15.5q-1 -3 -3 -8.5t-5.5 -21t-4.5 -30t2 -32
t11 -30t25.5 -21t43.5 -8.5q71 0 144.5 58.5t131.5 156.5zM267 446q-39 0 -76.5 -46t-56.5 -92l-18 -46q65 -12 100.5 14t59.5 77q44 93 -9 93zM139 717h117l117 -137h-76z" />
    <glyph glyph-name="eacute" unicode="&#xe9;" horiz-adv-x="429" 
d="M443 269q11 0 25 -10t18 -21q-28 -49 -60.5 -90.5t-75.5 -79.5t-96 -59.5t-110 -21.5q-76 0 -116 38.5t-40 112.5q0 55 21.5 122.5t58 128.5t91.5 102t115 41q76 0 103.5 -58t-13.5 -148q-38 -79 -101.5 -105.5t-164.5 -15.5q-1 -3 -3 -8.5t-5.5 -21t-4.5 -30t2 -32
t11 -30t25.5 -21t43.5 -8.5q71 0 144.5 58.5t131.5 156.5zM267 446q-39 0 -76.5 -46t-56.5 -92l-18 -46q65 -12 100.5 14t59.5 77q44 93 -9 93zM336 717h117l-158 -137h-76z" />
    <glyph glyph-name="ecircumflex" unicode="&#xea;" horiz-adv-x="429" 
d="M443 269q11 0 25 -10t18 -21q-28 -49 -60.5 -90.5t-75.5 -79.5t-96 -59.5t-110 -21.5q-76 0 -116 38.5t-40 112.5q0 55 21.5 122.5t58 128.5t91.5 102t115 41q76 0 103.5 -58t-13.5 -148q-38 -79 -101.5 -105.5t-164.5 -15.5q-1 -3 -3 -8.5t-5.5 -21t-4.5 -30t2 -32
t11 -30t25.5 -21t43.5 -8.5q71 0 144.5 58.5t131.5 156.5zM267 446q-39 0 -76.5 -46t-56.5 -92l-18 -46q65 -12 100.5 14t59.5 77q44 93 -9 93zM377 728l77 -159h-65l-53 90l-121 -90h-89l203 159h48z" />
    <glyph glyph-name="edieresis" unicode="&#xeb;" horiz-adv-x="429" 
d="M443 269q11 0 25 -10t18 -21q-28 -49 -60.5 -90.5t-75.5 -79.5t-96 -59.5t-110 -21.5q-76 0 -116 38.5t-40 112.5q0 55 21.5 122.5t58 128.5t91.5 102t115 41q76 0 103.5 -58t-13.5 -148q-38 -79 -101.5 -105.5t-164.5 -15.5q-1 -3 -3 -8.5t-5.5 -21t-4.5 -30t2 -32
t11 -30t25.5 -21t43.5 -8.5q71 0 144.5 58.5t131.5 156.5zM267 446q-39 0 -76.5 -46t-56.5 -92l-18 -46q65 -12 100.5 14t59.5 77q44 93 -9 93zM228 590q-25 0 -43 18t-18 44t17.5 43.5t43.5 17.5t44 -18t18 -43q0 -26 -18 -44t-44 -18zM399 590q-25 0 -43 18t-18 44
t18 43.5t43 17.5q26 0 44 -18t18 -43q0 -26 -18.5 -44t-43.5 -18z" />
    <glyph glyph-name="igrave" unicode="&#xec;" horiz-adv-x="264" 
d="M278 269q11 0 25 -10t18 -21q-144 -251 -269 -251q-44 0 -68.5 21.5t-24 75.5t34.5 138l120 297h105l-136 -337q-14 -34 -20 -58.5t-6.5 -37.5t4 -20.5t9 -9.5t10.5 -2q36 0 89.5 60.5t108.5 154.5zM15 717h117l117 -137h-76z" />
    <glyph glyph-name="iacute" unicode="&#xed;" horiz-adv-x="264" 
d="M278 269q11 0 25 -10t18 -21q-144 -251 -269 -251q-44 0 -68.5 21.5t-24 75.5t34.5 138l120 297h105l-136 -337q-14 -34 -20 -58.5t-6.5 -37.5t4 -20.5t9 -9.5t10.5 -2q36 0 89.5 60.5t108.5 154.5zM255 717h117l-158 -137h-76z" />
    <glyph glyph-name="icircumflex" unicode="&#xee;" horiz-adv-x="264" 
d="M278 269q11 0 25 -10t18 -21q-144 -251 -269 -251q-44 0 -68.5 21.5t-24 75.5t34.5 138l120 297h105l-136 -337q-14 -34 -20 -58.5t-6.5 -37.5t4 -20.5t9 -9.5t10.5 -2q36 0 89.5 60.5t108.5 154.5zM266 728l77 -159h-65l-53 90l-121 -90h-89l203 159h48z" />
    <glyph glyph-name="idieresis" unicode="&#xef;" horiz-adv-x="264" 
d="M278 269q11 0 25 -10t18 -21q-144 -251 -269 -251q-44 0 -68.5 21.5t-24 75.5t34.5 138l120 297h105l-136 -337q-14 -34 -20 -58.5t-6.5 -37.5t4 -20.5t9 -9.5t10.5 -2q36 0 89.5 60.5t108.5 154.5zM119 590q-25 0 -43 18t-18 44t18 43.5t43 17.5q26 0 44 -18t18 -43
q0 -26 -18.5 -44t-43.5 -18zM290 590q-25 0 -43 18t-18 44t17.5 43.5t43.5 17.5t44 -18t18 -43q0 -26 -18 -44t-44 -18z" />
    <glyph glyph-name="eth" unicode="&#xf0;" horiz-adv-x="431" 
d="M272 776l45 -30l-36 -53q5 -2 13.5 -7t30 -25.5t38 -47t29 -75.5t11.5 -107q-2 -75 -22 -152.5t-55 -143t-89.5 -107t-117.5 -41.5q-61 0 -96.5 36.5t-35.5 99.5q0 57 18.5 121t51.5 120.5t85 93.5t111 37q19 0 33 -4.5t19 -9.5l5 -5q0 34 -7.5 62.5t-18 44.5t-21.5 27.5
t-19 15.5l-7 4l-49 -73l-45 30l44 65q-3 1 -9.5 2.5t-30.5 4t-52 -2.5l-13 68q42 6 75 4t53 -7l21 -5zM125 58q42 0 83 58.5t64 128.5t23 114q0 66 -45 66q-42 0 -83 -60t-63.5 -131t-22.5 -117q0 -59 44 -59z" />
    <glyph glyph-name="ntilde" unicode="&#xf1;" horiz-adv-x="502" 
d="M516 269q11 0 25 -10t18 -21q-144 -251 -269 -251q-44 0 -68.5 21.5t-24 75.5t34.5 138l40 99q35 87 35 102q0 22 -28 22q-22 0 -55 -19t-64 -54l-150 -372h-105l209 519l84 -52q71 65 139 65q34 0 56 -20t22 -57q0 -40 -33 -123l-61 -150q-14 -34 -20 -58.5t-6.5 -37.5
t4 -20.5t9 -9.5t10.5 -2q36 0 89.5 60.5t108.5 154.5zM166 601l-30 36q27 34 49 50.5t51 16.5q30 0 66 -19t53 -19q33 0 54 35l30 -37q-51 -65 -100 -65q-30 0 -65.5 19t-53.5 19q-29 0 -54 -36z" />
    <glyph glyph-name="ograve" unicode="&#xf2;" horiz-adv-x="491" 
d="M505 269q11 0 25 -10t18 -21q-47 -83 -111.5 -122.5t-137.5 -20.5q-79 -108 -181 -108q-58 0 -94.5 36t-36.5 106q0 40 11.5 91.5t36 106t57.5 100.5t80.5 75.5t99.5 29.5q58 0 94 -36t36 -105q0 -48 -18 -113.5t-49 -124.5q42 -9 86 20t84 96zM124 58q44 0 93 78
q-18 18 -18 44q0 28 21 46.5t49 14.5q40 102 40 161t-41 59t-86.5 -66.5t-73.5 -147t-28 -128.5q0 -28 12 -44.5t32 -16.5zM169 717h117l117 -137h-76z" />
    <glyph glyph-name="oacute" unicode="&#xf3;" horiz-adv-x="491" 
d="M505 269q11 0 25 -10t18 -21q-47 -83 -111.5 -122.5t-137.5 -20.5q-79 -108 -181 -108q-58 0 -94.5 36t-36.5 106q0 40 11.5 91.5t36 106t57.5 100.5t80.5 75.5t99.5 29.5q58 0 94 -36t36 -105q0 -48 -18 -113.5t-49 -124.5q42 -9 86 20t84 96zM124 58q44 0 93 78
q-18 18 -18 44q0 28 21 46.5t49 14.5q40 102 40 161t-41 59t-86.5 -66.5t-73.5 -147t-28 -128.5q0 -28 12 -44.5t32 -16.5zM359 717h117l-158 -137h-76z" />
    <glyph glyph-name="ocircumflex" unicode="&#xf4;" horiz-adv-x="491" 
d="M505 269q11 0 25 -10t18 -21q-47 -83 -111.5 -122.5t-137.5 -20.5q-79 -108 -181 -108q-58 0 -94.5 36t-36.5 106q0 40 11.5 91.5t36 106t57.5 100.5t80.5 75.5t99.5 29.5q58 0 94 -36t36 -105q0 -48 -18 -113.5t-49 -124.5q42 -9 86 20t84 96zM124 58q44 0 93 78
q-18 18 -18 44q0 28 21 46.5t49 14.5q40 102 40 161t-41 59t-86.5 -66.5t-73.5 -147t-28 -128.5q0 -28 12 -44.5t32 -16.5zM376 728l77 -159h-65l-53 90l-121 -90h-89l203 159h48z" />
    <glyph glyph-name="otilde" unicode="&#xf5;" horiz-adv-x="491" 
d="M505 269q11 0 25 -10t18 -21q-47 -83 -111.5 -122.5t-137.5 -20.5q-79 -108 -181 -108q-58 0 -94.5 36t-36.5 106q0 40 11.5 91.5t36 106t57.5 100.5t80.5 75.5t99.5 29.5q58 0 94 -36t36 -105q0 -48 -18 -113.5t-49 -124.5q42 -9 86 20t84 96zM124 58q44 0 93 78
q-18 18 -18 44q0 28 21 46.5t49 14.5q40 102 40 161t-41 59t-86.5 -66.5t-73.5 -147t-28 -128.5q0 -28 12 -44.5t32 -16.5zM218 601l-30 36q27 34 49 50.5t51 16.5q30 0 66 -19t53 -19q33 0 54 35l30 -37q-51 -65 -100 -65q-30 0 -65.5 19t-53.5 19q-29 0 -54 -36z" />
    <glyph glyph-name="odieresis" unicode="&#xf6;" horiz-adv-x="491" 
d="M505 269q11 0 25 -10t18 -21q-47 -83 -111.5 -122.5t-137.5 -20.5q-79 -108 -181 -108q-58 0 -94.5 36t-36.5 106q0 40 11.5 91.5t36 106t57.5 100.5t80.5 75.5t99.5 29.5q58 0 94 -36t36 -105q0 -48 -18 -113.5t-49 -124.5q42 -9 86 20t84 96zM124 58q44 0 93 78
q-18 18 -18 44q0 28 21 46.5t49 14.5q40 102 40 161t-41 59t-86.5 -66.5t-73.5 -147t-28 -128.5q0 -28 12 -44.5t32 -16.5zM245 590q-25 0 -43 18t-18 44t18 43.5t43 17.5q26 0 44 -18t18 -43q0 -26 -18.5 -44t-43.5 -18zM416 590q-25 0 -43 18t-18 44t17.5 43.5t43.5 17.5
t44 -18t18 -43q0 -26 -18 -44t-44 -18z" />
    <glyph glyph-name="divide" unicode="&#xf7;" horiz-adv-x="585" 
d="M71 331h443l-37 -90h-443zM335 376q-25 0 -43 18t-18 43q0 26 18 44t43 18t43.5 -18.5t18.5 -43.5t-18 -43t-44 -18zM213 197q26 0 44 -18t18 -43q0 -26 -18.5 -44t-43.5 -18t-43 18t-18 44t18 43.5t43 17.5z" />
    <glyph glyph-name="oslash" unicode="&#xf8;" horiz-adv-x="491" 
d="M505 269q11 0 25 -10t18 -21q-47 -83 -111.5 -122.5t-137.5 -20.5q-81 -111 -186 -108l-35 -87h-55l39 97q-75 30 -75 132q0 40 12 92t37 107t58 101t81.5 75t102.5 28l57 142h55l-62 -153q74 -30 74 -130q0 -48 -18 -113.5t-49 -124.5q42 -9 86 20t84 96zM247 456
q-31 -11 -68 -65t-61 -117t-35 -121.5t9 -79.5zM143 61q38 10 84.5 91.5t69.5 171.5t1 122z" />
    <glyph glyph-name="ugrave" unicode="&#xf9;" horiz-adv-x="502" 
d="M145 717h117l117 -137h-76zM516 269q11 0 25 -10t18 -21q-143 -251 -269 -251q-40 0 -66 21.5t-27 65.5q-78 -87 -147 -87q-30 0 -51 11.5t-33 37t-5.5 73t33.5 113.5l120 297h105l-136 -337q-19 -48 -24 -75.5t0 -35t17 -7.5q40 0 86 58.5t84 132.5l106 264h105
l-136 -337q-19 -48 -24 -78t1.5 -40t20.5 -10q35 0 88.5 60.5t108.5 154.5z" />
    <glyph glyph-name="uacute" unicode="&#xfa;" horiz-adv-x="502" 
d="M352 717h117l-158 -137h-76zM516 269q11 0 25 -10t18 -21q-143 -251 -269 -251q-41 0 -66.5 21.5t-26.5 65.5q-78 -87 -147 -87q-30 0 -51 11.5t-33 37t-5.5 73t33.5 113.5l120 297h105l-136 -337q-19 -48 -24 -75.5t0 -35t17 -7.5q40 0 86 58.5t84 132.5l106 264h105
l-136 -337q-19 -48 -24 -78t1.5 -40t20.5 -10q35 0 88.5 60.5t108.5 154.5z" />
    <glyph glyph-name="ucircumflex" unicode="&#xfb;" horiz-adv-x="502" 
d="M382 728l77 -159h-65l-53 90l-121 -90h-89l203 159h48zM516 269q11 0 25 -10t18 -21q-143 -251 -269 -251q-41 0 -66.5 21.5t-26.5 65.5q-78 -87 -147 -87q-30 0 -51 11.5t-33 37t-5.5 73t33.5 113.5l120 297h105l-136 -337q-19 -48 -24 -75.5t0 -35t17 -7.5
q40 0 86 58.5t84 132.5l106 264h105l-136 -337q-19 -48 -24 -78t1.5 -40t20.5 -10q35 0 88.5 60.5t108.5 154.5z" />
    <glyph glyph-name="udieresis" unicode="&#xfc;" horiz-adv-x="502" 
d="M236 590q-25 0 -43 18t-18 44t17.5 43.5t43.5 17.5t44 -18t18 -43q0 -26 -18 -44t-44 -18zM407 590q-25 0 -43 18t-18 44t18 43.5t43 17.5q26 0 44 -18t18 -43q0 -26 -18.5 -44t-43.5 -18zM516 269q11 0 25 -10t18 -21q-143 -251 -269 -251q-41 0 -66.5 21.5t-26.5 65.5
q-78 -87 -147 -87q-30 0 -51 11.5t-33 37t-5.5 73t33.5 113.5l120 297h105l-136 -337q-19 -48 -24 -75.5t0 -35t17 -7.5q40 0 86 58.5t84 132.5l106 264h105l-136 -337q-19 -48 -24 -78t1.5 -40t20.5 -10q35 0 88.5 60.5t108.5 154.5z" />
    <glyph glyph-name="yacute" unicode="&#xfd;" horiz-adv-x="492" 
d="M352 717h117l-158 -137h-76zM506 269q11 0 25 -10t18 -21q-30 -52 -65.5 -95t-64 -69.5t-69.5 -52.5t-62 -36.5t-60 -29.5q-13 -34 -29 -71q-36 -84 -78.5 -130.5t-110.5 -46.5q-49 0 -77 27t-25 69q5 72 110 124q12 6 57.5 26t58.5 28l28 68q-6 -7 -15.5 -17.5
t-40 -27.5t-59.5 -17t-49.5 12t-32 38t-5 73.5t33.5 111.5l120 297h105l-136 -337q-19 -48 -24 -75.5t0 -35t17 -7.5q40 0 86 58.5t84 132.5l106 264h105l-199 -490q76 39 137 95.5t111 144.5zM-33 -195q0 -12 8.5 -19.5t21.5 -6.5q25 1 53 30.5t53 94.5q-64 -26 -86 -39
q-50 -31 -50 -60z" />
    <glyph glyph-name="thorn" unicode="&#xfe;" horiz-adv-x="477" 
d="M491 269q11 0 25 -10t18 -21q-62 -110 -152.5 -180.5t-195.5 -70.5q-48 0 -83 15.5t-46 31.5l-11 15l39 35q14 -21 33 -21q32 0 75.5 65.5t74.5 146.5t31 128q0 42 -31 42q-25 0 -55 -23t-58 -61l-226 -559h-105l376 928h103l-102 -250q5 6 14 14.5t37 23t56 14.5
q44 0 67.5 -33t23.5 -90q0 -91 -54 -207t-100 -157q139 41 246 224z" />
    <glyph glyph-name="ydieresis" unicode="&#xff;" horiz-adv-x="492" 
d="M236 590q-25 0 -43 18t-18 44t17.5 43.5t43.5 17.5t44 -18t18 -43q0 -26 -18 -44t-44 -18zM407 590q-25 0 -43 18t-18 44t18 43.5t43 17.5q26 0 44 -18t18 -43q0 -26 -18.5 -44t-43.5 -18zM506 269q11 0 25 -10t18 -21q-30 -52 -65.5 -95t-64 -69.5t-69.5 -52.5
t-62 -36.5t-60 -29.5q-13 -34 -29 -71q-36 -84 -78.5 -130.5t-110.5 -46.5q-49 0 -77 27t-25 69q5 72 110 124q12 6 57.5 26t58.5 28l28 68q-6 -7 -15.5 -17.5t-40 -27.5t-59.5 -17t-49.5 12t-32 38t-5 73.5t33.5 111.5l120 297h105l-136 -337q-19 -48 -24 -75.5t0 -35
t17 -7.5q40 0 86 58.5t84 132.5l106 264h105l-199 -490q76 39 137 95.5t111 144.5zM-33 -195q0 -12 8.5 -19.5t21.5 -6.5q25 1 53 30.5t53 94.5q-64 -26 -86 -39q-50 -31 -50 -60z" />
    <glyph glyph-name="Abreve" unicode="&#x102;" horiz-adv-x="845" 
d="M776 872q-46 0 -69 18.5t-22.5 44t5 44.5t9.5 27h51l-2 -6l-4.5 -13.5t-2 -16.5t4 -16.5t14.5 -12.5t28 -5q14 0 27 3.5t23 9.5t18 13t13.5 14.5t9.5 13.5t7 11l2 5h51q-1 -6 -5.5 -18.5t-17 -33.5t-29.5 -38.5t-46.5 -30.5t-64.5 -13zM859 269q11 0 25 -10t18 -21
q-66 -116 -120 -156.5t-141 -30.5l-57 -218l-84 77l45 167q-63 24 -167 81q-111 -172 -259 -172q-86 0 -137.5 47.5t-51.5 120.5q0 78 56 129t148 51q93 0 206 -61l233 391q6 10 18.5 31t17.5 29.5t15.5 25t16 23t15 18t16.5 16t17 10t20 7.5t21 2q40 0 69.5 -32t12.5 -96
l-153 -578q63 -4 103.5 25t96.5 124zM420 227q97 -55 145 -78l153 558l-10 4zM120 71q90 0 177 132q-94 49 -162 49q-59 0 -88 -28t-29 -66q0 -35 26.5 -61t75.5 -26z" />
    <glyph glyph-name="abreve" unicode="&#x103;" 
d="M324 583q-46 0 -69 18.5t-22.5 44t5 44.5t9.5 27h51l-2 -6l-4.5 -13.5t-2 -16.5t4 -16.5t14.5 -12.5t28 -5q14 0 27 3.5t23 9.5t18 13t13.5 14.5t9.5 13.5t7 11l2 5h51q-1 -6 -5.5 -18.5t-17 -33.5t-29.5 -38.5t-46.5 -30.5t-64.5 -13zM533 269q11 0 25 -10t18 -21
q-144 -251 -270 -251q-25 0 -44 8t-27.5 20t-13.5 24t-5 20l-1 8q-2 -3 -6.5 -8.5t-19.5 -19.5t-30.5 -24.5t-38.5 -19t-46 -8.5q-46 0 -71 31.5t-25 80.5q0 44 18 113.5t49.5 142.5t84 125t112.5 52q24 0 42.5 -8.5t28.5 -20t17 -23.5t9 -20l2 -9l133 68l-136 -337
q-19 -48 -24 -78t1.5 -40t20.5 -10q35 0 88.5 60.5t108.5 154.5zM111 74q26 0 55 23t44 46l16 23l83 205v8t-2.5 17t-7.5 21.5t-15 17.5t-24 8q-43 0 -87.5 -66.5t-69.5 -142.5t-25 -119q0 -41 33 -41z" />
    <glyph glyph-name="Aogonek" unicode="&#x104;" horiz-adv-x="845" 
d="M523 -355q-19 -7 -41.5 -10.5t-47.5 -1.5t-41.5 20t-16.5 50q0 42 44 81.5t127 82.5l-47 43l45 167q-63 24 -167 81q-111 -172 -259 -172q-86 0 -137.5 47.5t-51.5 120.5q0 78 56 129t148 51q93 0 206 -61l233 391q6 10 18.5 31t17.5 29.5t15.5 25t16 23t15 18t16.5 16
t17 10t20 7.5t21 2q40 0 69.5 -32t12.5 -96l-153 -578q63 -4 103.5 25t96.5 124q11 0 25 -10t18 -21q-66 -116 -120 -156.5t-141 -30.5l-57 -218l-10 9q-51 -32 -85 -64.5t-34 -55.5q0 -40 90 -12q4 1 5 1zM420 227q97 -55 145 -78l153 558l-10 4zM120 71q90 0 177 132
q-94 49 -162 49q-59 0 -88 -28t-29 -66q0 -35 26.5 -61t75.5 -26z" />
    <glyph glyph-name="aogonek" unicode="&#x105;" 
d="M302 -199q-19 -7 -41.5 -10.5t-47.5 -1.5t-41.5 20t-16.5 50q0 64 117 133q-25 7 -39 25.5t-16 34.5l-2 15q-2 -3 -6.5 -8.5t-19.5 -19.5t-30.5 -24.5t-38.5 -19t-46 -8.5q-46 0 -71 31.5t-25 80.5q0 44 18 113.5t49.5 142.5t84 125t112.5 52q24 0 42.5 -8.5t28.5 -20
t17 -23.5t9 -20l2 -9l133 68l-136 -337q-19 -48 -24 -78t1.5 -40t20.5 -10q35 0 88.5 60.5t108.5 154.5q11 0 25 -10t18 -21q-125 -216 -232 -245q-110 -73 -110 -115q0 -40 90 -12q4 1 5 1zM111 74q26 0 55 23t44 46l16 23l83 205v8t-2.5 17t-7.5 21.5t-15 17.5t-24 8
q-43 0 -87.5 -66.5t-69.5 -142.5t-25 -119q0 -41 33 -41z" />
    <glyph glyph-name="Cacute" unicode="&#x106;" horiz-adv-x="679" 
d="M706 1010h117l-158 -137h-76zM693 269q11 0 25 -10t18 -21q-78 -134 -178 -214.5t-214 -80.5q-173 0 -173 192q0 76 24 167q-99 29 -147 96.5t-48 145.5q0 73 38 134.5t93 91.5l50 -71q-16 -9 -34.5 -25t-39.5 -53.5t-21 -80.5q0 -51 38 -98t95 -60q29 85 70.5 164.5
t92 145t111.5 105t120 39.5q66 0 103.5 -46t37.5 -114q0 -62 -29.5 -132.5t-90.5 -129.5q-131 -127 -323 -127h-14q-26 -85 -26 -155q0 -109 96 -109q76 0 168 67t158 179zM597 735q-63 0 -139.5 -109t-131.5 -255q140 4 235 103q42 44 66 95t24 94q0 33 -14 52.5t-40 19.5z
" />
    <glyph glyph-name="cacute" unicode="&#x107;" horiz-adv-x="429" 
d="M345 717h117l-158 -137h-76zM443 269q11 0 25 -10t18 -21q-28 -49 -60.5 -90.5t-75.5 -79.5t-96 -59.5t-110 -21.5q-76 0 -116 38.5t-40 111.5q0 55 21.5 122.5t57.5 128.5t91 102.5t114 41.5q82 0 107 -63t-27 -166h-104q59 122 37 139q-6 4 -17 4q-46 0 -90.5 -64
t-69 -136.5t-24.5 -114.5q0 -36 24 -56.5t62 -20.5q67 0 142 59.5t131 155.5z" />
    <glyph glyph-name="Ccaron" unicode="&#x10c;" horiz-adv-x="679" 
d="M618 872l-76 159h64l52 -89l122 89h89l-203 -159h-48zM693 269q11 0 25 -10t18 -21q-78 -134 -178 -214.5t-214 -80.5q-173 0 -173 192q0 76 24 167q-99 29 -147 96.5t-48 145.5q0 73 38 134.5t93 91.5l50 -71q-16 -9 -34.5 -25t-39.5 -53.5t-21 -80.5q0 -51 38 -98
t95 -60q29 85 70.5 164.5t92 145t111.5 105t120 39.5q66 0 103.5 -46t37.5 -114q0 -62 -29.5 -132.5t-90.5 -129.5q-131 -127 -323 -127h-14q-26 -85 -26 -155q0 -109 96 -109q76 0 168 67t158 179zM597 735q-63 0 -139.5 -109t-131.5 -255q140 4 235 103q42 44 66 95t24 94
q0 33 -14 52.5t-40 19.5z" />
    <glyph glyph-name="ccaron" unicode="&#x10d;" horiz-adv-x="429" 
d="M276 569l-76 159h64l52 -89l122 89h89l-203 -159h-48zM443 269q11 0 25 -10t18 -21q-28 -49 -60.5 -90.5t-75.5 -79.5t-96 -59.5t-110 -21.5q-76 0 -116 38.5t-40 111.5q0 55 21.5 122.5t57.5 128.5t91 102.5t114 41.5q82 0 107 -63t-27 -166h-104q59 122 37 139
q-6 4 -17 4q-46 0 -90.5 -64t-69 -136.5t-24.5 -114.5q0 -36 24 -56.5t62 -20.5q67 0 142 59.5t131 155.5z" />
    <glyph glyph-name="Dcaron" unicode="&#x10e;" horiz-adv-x="936" 
d="M716 872l-76 159h64l52 -89l122 89h89l-203 -159h-48zM119 236q44 0 82.5 -18.5t91.5 -62.5q36 52 66 127l114 284q22 55 65.5 92.5t95.5 37.5l19 -63q-2 -1 -6 -2.5t-14.5 -9t-21 -17.5t-23 -29t-22.5 -43q-118 -290 -118 -291q-35 -89 -79 -146q81 -62 142 -62
q78 0 150.5 69.5t114.5 174.5t42 209q0 119 -59.5 193.5t-174.5 74.5q-86 0 -154.5 -45.5t-101.5 -106.5t-33 -119q0 -24 6 -47.5t11 -35.5l6 -12l-73 -53q-37 51 -37 144q0 149 111.5 253t271.5 104q146 0 236 -93t90 -254q0 -91 -29.5 -186.5t-81 -175.5t-129.5 -131.5
t-165 -51.5q-55 0 -96 20.5t-103 69.5q-81 -71 -184 -71q-75 0 -117.5 39t-42.5 94q0 54 39.5 97t110.5 43zM130 48q58 0 110 47q-71 65 -122 65q-29 0 -48 -18.5t-19 -40.5q0 -25 21.5 -39t57.5 -14z" />
    <glyph glyph-name="dcaron" unicode="&#x10f;" 
d="M533 269q11 0 25 -10t18 -21q-144 -251 -270 -251q-25 0 -44 8t-27.5 20t-13.5 24t-5 20l-1 8q-2 -3 -6.5 -8.5t-19.5 -19.5t-30.5 -24.5t-38.5 -19t-46 -8.5q-46 0 -71 31.5t-25 80.5q0 44 18 113.5t49.5 142.5t84 125t112.5 52q24 0 42.5 -8.5t28.5 -20t17 -23.5t9 -20
l2 -9l108 266h105l-216 -535q-21 -51 -25 -81t2.5 -38.5t19.5 -8.5q36 0 89.5 60.5t108.5 154.5zM111 74q26 0 55 23t44 46l16 23l83 205v8t-2.5 17t-7.5 21.5t-15 17.5t-24 8q-43 0 -87.5 -66.5t-69.5 -142.5t-25 -119q0 -41 33 -41zM611 724q20 0 38 -14.5t18 -45.5
q0 -27 -15 -54t-36.5 -46.5t-43 -35.5t-36.5 -24l-15 -8l-17 34q82 54 88 86q-37 13 -37 52q0 23 16.5 39.5t39.5 16.5z" />
    <glyph glyph-name="Dcroat" unicode="&#x110;" horiz-adv-x="936" 
d="M119 236q44 0 82.5 -18.5t91.5 -62.5q31 46 52 95h-76l32 80h77l95 236q22 55 65.5 92.5t95.5 37.5l19 -63q-2 -1 -6 -2.5t-14.5 -9t-21 -17.5t-23 -29t-22.5 -43q-48 -117 -83 -202h81l-32 -80h-81q-32 -89 -82 -155q81 -62 142 -62q78 0 150.5 69.5t114.5 174.5t42 209
q0 119 -59.5 193.5t-174.5 74.5q-86 0 -154.5 -45.5t-101.5 -106.5t-33 -119q0 -24 6 -47.5t11 -35.5l6 -12l-73 -53q-37 51 -37 144q0 149 111.5 253t271.5 104q146 0 236 -93t90 -254q0 -91 -29.5 -186.5t-81 -175.5t-129.5 -131.5t-165 -51.5q-55 0 -96 20.5t-103 69.5
q-81 -71 -184 -71q-75 0 -117.5 39t-42.5 94q0 54 39.5 97t110.5 43zM130 48q58 0 110 47q-71 65 -122 65q-29 0 -48 -18.5t-19 -40.5q0 -25 21.5 -39t57.5 -14z" />
    <glyph glyph-name="dcroat" unicode="&#x111;" 
d="M335 635h81l33 82h105l-33 -82h77l-24 -59h-77l-159 -394q-21 -51 -25 -81t2.5 -38.5t19.5 -8.5q36 0 89.5 60.5t108.5 154.5q11 0 25 -10t18 -21q-144 -251 -270 -251q-25 0 -44 8t-27.5 20t-13.5 24t-5 20l-1 8q-2 -3 -6.5 -8.5t-19.5 -19.5t-30.5 -24.5t-38.5 -19
t-46 -8.5q-46 0 -71 31.5t-25 80.5q0 44 18 113.5t49.5 142.5t84 125t112.5 52q24 0 42.5 -8.5t28.5 -20t17 -23.5t9 -20l2 -9l51 125h-81zM111 74q26 0 55 23t44 46l16 23l83 205v8t-2.5 17t-7.5 21.5t-15 17.5t-24 8q-43 0 -87.5 -66.5t-69.5 -142.5t-25 -119
q0 -41 33 -41z" />
    <glyph glyph-name="Eogonek" unicode="&#x118;" horiz-adv-x="618" 
d="M275 -283q-19 -7 -41.5 -10.5t-47.5 -1.5t-41.5 20t-16.5 50q0 65 122 136q-107 8 -178.5 86.5t-71.5 185.5q0 122 90 207t211 71q-17 41 -17 94q0 78 45 148q-25 81 -16 171l67 -10q-6 -52 3 -99q73 62 170 62q85 0 131 -46.5t45 -105.5q-1 -65 -49 -112.5t-127 -47.5
q-52 0 -96 23.5t-73 65.5q-16 -53 -0.5 -110.5t59.5 -88.5l-46 -72q-5 5 -15 11.5t-41 18t-63 11.5q-77 0 -127 -55.5t-50 -133.5q0 -76 48.5 -129.5t127.5 -53.5q51 0 92 23t62 59t28.5 79.5t-9.5 84.5l89 25q38 -132 -25.5 -233.5t-185.5 -124.5q-121 -76 -121 -121
q0 -40 90 -12q4 1 5 1zM546 734q-78 0 -128 -62q50 -81 130 -81q43 0 67 23.5t24 50.5q0 26 -23.5 47.5t-69.5 21.5z" />
    <glyph glyph-name="eogonek" unicode="&#x119;" horiz-adv-x="429" 
d="M152 -199q-19 -7 -41.5 -10.5t-47.5 -1.5t-41.5 20t-16.5 50q0 63 111 130q-128 14 -128 149q0 55 21.5 122.5t58 128.5t91.5 102t115 41q76 0 103.5 -58t-13.5 -148q-38 -79 -101.5 -105.5t-164.5 -15.5q-1 -3 -3 -8.5t-5.5 -21t-4.5 -30t2 -32t11 -30t25.5 -21
t43.5 -8.5q71 0 144.5 58.5t131.5 156.5q11 0 25 -10t18 -21q-125 -219 -294 -246q-108 -71 -108 -114q0 -40 90 -12q4 1 5 1zM267 446q-39 0 -76.5 -46t-56.5 -92l-18 -46q65 -12 100.5 14t59.5 77q44 93 -9 93z" />
    <glyph glyph-name="Ecaron" unicode="&#x11a;" horiz-adv-x="618" 
d="M576 872l-76 159h64l52 -89l122 89h89l-203 -159h-48zM553 515q-52 0 -96 23.5t-73 65.5q-16 -53 -0.5 -110.5t59.5 -88.5l-46 -72q-5 5 -15 11.5t-41 18t-63 11.5q-77 0 -127 -55.5t-50 -133.5q0 -76 48.5 -129.5t127.5 -53.5q51 0 92 23t62 59t28.5 79.5t-9.5 84.5
l89 25q23 -76 9 -142.5t-52 -115.5t-97 -77t-127 -28q-115 0 -193.5 80t-78.5 193q0 122 90 207t211 71q-17 41 -17 94q0 78 45 148q-25 81 -16 171l67 -10q-6 -52 3 -99q73 62 170 62q85 0 131 -46.5t45 -105.5q-1 -65 -49 -112.5t-127 -47.5zM546 734q-78 0 -128 -62
q50 -81 130 -81q43 0 67 23.5t24 50.5q0 26 -23.5 47.5t-69.5 21.5z" />
    <glyph glyph-name="ecaron" unicode="&#x11b;" horiz-adv-x="429" 
d="M443 269q11 0 25 -10t18 -21q-28 -49 -60.5 -90.5t-75.5 -79.5t-96 -59.5t-110 -21.5q-76 0 -116 38.5t-40 112.5q0 55 21.5 122.5t58 128.5t91.5 102t115 41q76 0 103.5 -58t-13.5 -148q-38 -79 -101.5 -105.5t-164.5 -15.5q-1 -3 -3 -8.5t-5.5 -21t-4.5 -30t2 -32
t11 -30t25.5 -21t43.5 -8.5q71 0 144.5 58.5t131.5 156.5zM267 446q-39 0 -76.5 -46t-56.5 -92l-18 -46q65 -12 100.5 14t59.5 77q44 93 -9 93zM261 569l-76 159h64l52 -89l122 89h89l-203 -159h-48z" />
    <glyph glyph-name="dotlessi" unicode="&#x131;" horiz-adv-x="264" 
d="M278 269q11 0 25 -10t18 -21q-144 -251 -269 -251q-44 0 -68.5 21.5t-24 75.5t34.5 138l120 297h105l-136 -337q-14 -34 -20 -58.5t-6.5 -37.5t4 -20.5t9 -9.5t10.5 -2q36 0 89.5 60.5t108.5 154.5z" />
    <glyph glyph-name="Lacute" unicode="&#x139;" horiz-adv-x="730" 
d="M793 1009h117l-158 -137h-76zM86 207q73 0 147 -56q24 49 64 150q-101 31 -148 97.5t-47 145.5q0 73 38 134.5t93 91.5l50 -71q-16 -9 -34.5 -25t-39.5 -53.5t-21 -80.5q0 -51 37.5 -97.5t100.5 -63.5q34 87 61 147t63 123t71.5 101t81.5 62.5t97 24.5q76 0 115.5 -48.5
t39.5 -111.5q0 -62 -31 -132.5t-92 -130.5q-133 -130 -333 -127q-53 -139 -88 -203q24 -22 67.5 -63.5t78.5 -73.5t65 -56q73 -58 126 -58q60 0 134 71l63 -72q-101 -94 -195 -94q-82 0 -183 79q-45 35 -210 190q-67 -75 -165 -78q-71 -2 -114 39t-43 96t41 99t110 44z
M690 733q-123 0 -260 -364q133 7 229 105q42 44 66 95t24 94q0 70 -59 70zM84 13q54 0 100 61q-55 51 -97 51q-31 0 -48.5 -17t-17.5 -39q0 -23 17 -39.5t46 -16.5z" />
    <glyph glyph-name="lacute" unicode="&#x13a;" horiz-adv-x="264" 
d="M335 915h117l-158 -137h-76zM278 269q11 0 25 -10t18 -21q-144 -251 -269 -251q-32 0 -53.5 12t-33 38t-4.5 73t33 112l200 495h105l-216 -535q-21 -51 -25 -81t2.5 -38.5t19.5 -8.5q36 0 89.5 60.5t108.5 154.5z" />
    <glyph glyph-name="Lcaron" unicode="&#x13d;" horiz-adv-x="730" 
d="M980 830q24 0 44 -17.5t20 -53.5q0 -31 -17.5 -62.5t-42 -54t-49 -41t-41.5 -27.5l-18 -9l-20 39q96 64 102 100q-19 7 -31 23.5t-12 37.5q0 26 19 45.5t46 19.5zM86 207q73 0 147 -56q24 49 64 150q-101 31 -148 97.5t-47 145.5q0 73 38 134.5t93 91.5l50 -71
q-16 -9 -34.5 -25t-39.5 -53.5t-21 -80.5q0 -51 37.5 -97.5t100.5 -63.5q34 87 61 147t63 123t71.5 101t81.5 62.5t97 24.5q76 0 115.5 -48.5t39.5 -111.5q0 -62 -31 -132.5t-92 -130.5q-133 -130 -333 -127q-53 -139 -88 -203q24 -22 67.5 -63.5t78.5 -73.5t65 -56
q73 -58 126 -58q60 0 134 71l63 -72q-101 -94 -195 -94q-82 0 -183 79q-45 35 -210 190q-67 -75 -165 -78q-71 -2 -114 39t-43 96t41 99t110 44zM690 733q-123 0 -260 -364q133 7 229 105q42 44 66 95t24 94q0 70 -59 70zM84 13q54 0 100 61q-55 51 -97 51q-31 0 -48.5 -17
t-17.5 -39q0 -23 17 -39.5t46 -16.5z" />
    <glyph glyph-name="lcaron" unicode="&#x13e;" horiz-adv-x="264" 
d="M278 269q11 0 25 -10t18 -21q-144 -251 -269 -251q-32 0 -53.5 12t-33 38t-4.5 73t33 112l200 495h105l-216 -535q-21 -51 -25 -81t2.5 -38.5t19.5 -8.5q36 0 89.5 60.5t108.5 154.5zM356 724q20 0 38 -14.5t18 -45.5q0 -27 -15 -54t-36.5 -46.5t-43 -35.5t-36.5 -24
l-15 -8l-17 34q82 54 88 86q-37 13 -37 52q0 23 16.5 39.5t39.5 16.5z" />
    <glyph glyph-name="Lslash" unicode="&#x141;" horiz-adv-x="730" 
d="M87 125q-31 0 -48.5 -17t-17.5 -39q0 -23 17 -39.5t46 -16.5q54 0 100 61q-55 51 -97 51zM847 667h-103q0 66 -54 66q-113 0 -239 -312l126 29l-29 -71l-125 -29q-61 -171 -112 -266q24 -22 67.5 -63.5t78.5 -73.5t65 -56q73 -58 126 -58q60 0 134 71l63 -72
q-101 -94 -195 -94q-82 0 -183 79q-45 35 -210 190q-67 -75 -165 -78q-71 -2 -114 39t-43 96t41 99t110 44q73 0 147 -56q31 63 72 172l-125 -28l29 71l123 28q32 81 58.5 140.5t62 120t71 98t81 61t95.5 23.5q78 0 114.5 -47t32.5 -123z" />
    <glyph glyph-name="lslash" unicode="&#x142;" horiz-adv-x="264" 
d="M278 269q11 0 25 -10t18 -21q-144 -251 -269 -251q-32 0 -53.5 12t-33 38t-4.5 73t33 112l26 64l-79 -35l29 71l78 35l146 360h105l-123 -304l90 40l-29 -71l-89 -40l-65 -160q-21 -51 -25 -81t2.5 -38.5t19.5 -8.5q36 0 89.5 60.5t108.5 154.5z" />
    <glyph glyph-name="Nacute" unicode="&#x143;" horiz-adv-x="742" 
d="M710 966h117l-158 -137h-76zM455 772l54 -124q137 115 212 115q37 0 61 -23.5t24 -62.5q0 -45 -39 -139l-215 -536q-17 -42 -10 -73.5t46 -54.5l-36 -90q-158 75 -94 247l193 479q44 107 44 125q0 30 -25 30q-33 0 -99 -45.5t-110 -94.5l-216 -538h-105l271 675
q-20 -8 -64.5 -23.5t-73.5 -26.5t-67.5 -30t-61.5 -37t-39.5 -45t-16.5 -57q0 -38 22 -62.5t58 -24.5v-87q-76 0 -122.5 50t-45.5 120q0 50 22.5 91.5t56 69t85 53.5t96 42.5t102.5 38.5t93 38z" />
    <glyph glyph-name="nacute" unicode="&#x144;" horiz-adv-x="502" 
d="M516 269q11 0 25 -10t18 -21q-144 -251 -269 -251q-44 0 -68.5 21.5t-24 75.5t34.5 138l40 99q35 87 35 102q0 22 -28 22q-22 0 -55 -19t-64 -54l-150 -372h-105l209 519l84 -52q71 65 139 65q34 0 56 -20t22 -57q0 -40 -33 -123l-61 -150q-14 -34 -20 -58.5t-6.5 -37.5
t4 -20.5t9 -9.5t10.5 -2q36 0 89.5 60.5t108.5 154.5zM324 717h117l-158 -137h-76z" />
    <glyph glyph-name="Ncaron" unicode="&#x147;" horiz-adv-x="742" 
d="M623 830l-76 159h64l52 -89l122 89h89l-203 -159h-48zM455 772l54 -124q137 115 212 115q37 0 61 -23.5t24 -62.5q0 -45 -39 -139l-215 -536q-17 -42 -10 -73.5t46 -54.5l-36 -90q-158 75 -94 247l193 479q44 107 44 125q0 30 -25 30q-33 0 -99 -45.5t-110 -94.5
l-216 -538h-105l271 675q-20 -8 -64.5 -23.5t-73.5 -26.5t-67.5 -30t-61.5 -37t-39.5 -45t-16.5 -57q0 -38 22 -62.5t58 -24.5v-87q-76 0 -122.5 50t-45.5 120q0 50 22.5 91.5t56 69t85 53.5t96 42.5t102.5 38.5t93 38z" />
    <glyph glyph-name="ncaron" unicode="&#x148;" horiz-adv-x="502" 
d="M516 269q11 0 25 -10t18 -21q-144 -251 -269 -251q-44 0 -68.5 21.5t-24 75.5t34.5 138l40 99q35 87 35 102q0 22 -28 22q-22 0 -55 -19t-64 -54l-150 -372h-105l209 519l84 -52q71 65 139 65q34 0 56 -20t22 -57q0 -40 -33 -123l-61 -150q-14 -34 -20 -58.5t-6.5 -37.5
t4 -20.5t9 -9.5t10.5 -2q36 0 89.5 60.5t108.5 154.5zM244 569l-76 159h64l52 -89l122 89h89l-203 -159h-48z" />
    <glyph glyph-name="Ohungarumlaut" unicode="&#x150;" horiz-adv-x="687" 
d="M642 1009h103l-134 -137h-67zM489 1009h103l-134 -137h-67zM701 269q11 0 25 -10t18 -21q-40 -66 -110 -94.5t-137 -10.5q-64 -102 -142.5 -162.5t-164.5 -60.5q-95 0 -142 64t-47 163q0 103 42.5 230t123.5 239.5t176 153.5q59 72 145 72q73 0 118 -55.5t45 -152.5
q0 -98 -32 -213.5t-89 -221.5q60 -16 103.5 12t67.5 68zM404 173q-2 2 -6.5 5t-16.5 14t-23.5 24t-26 35t-26 46t-22 58t-15.5 70t-3.5 82.5t10.5 96.5q-64 -81 -120 -229.5t-56 -246.5q0 -57 22.5 -96t73.5 -39t106.5 49.5t102.5 130.5zM348 484q0 -164 91 -249
q50 97 81.5 208t31.5 171q0 116 -78 116q-53 0 -89.5 -72t-36.5 -174z" />
    <glyph glyph-name="ohungarumlaut" unicode="&#x151;" horiz-adv-x="491" 
d="M505 269q11 0 25 -10t18 -21q-47 -83 -111.5 -122.5t-137.5 -20.5q-79 -108 -181 -108q-58 0 -94.5 36t-36.5 106q0 40 11.5 91.5t36 106t57.5 100.5t80.5 75.5t99.5 29.5q58 0 94 -36t36 -105q0 -48 -18 -113.5t-49 -124.5q42 -9 86 20t84 96zM124 58q44 0 93 78
q-18 18 -18 44q0 28 21 46.5t49 14.5q40 102 40 161t-41 59t-86.5 -66.5t-73.5 -147t-28 -128.5q0 -28 12 -44.5t32 -16.5zM436 717h103l-134 -137h-67zM283 717h103l-134 -137h-67z" />
    <glyph glyph-name="OE" unicode="&#x152;" horiz-adv-x="1068" 
d="M1003 515q-52 0 -96 23.5t-73 65.5q-16 -53 -0.5 -110.5t59.5 -88.5l-46 -72q-5 5 -15 11.5t-41 18t-63 11.5q-77 0 -127 -55.5t-50 -133.5q0 -76 48.5 -129.5t127.5 -53.5q51 0 92 23t62 59t28.5 79.5t-9.5 84.5l89 25q23 -76 9 -142.5t-52 -115.5t-97 -77t-127 -28
q-89 0 -158 49.5t-97 128.5q-130 -178 -277 -178q-95 0 -142 64t-47 163q0 103 42.5 230t123.5 239.5t176 153.5q59 72 145 72q73 0 118 -55.5t45 -152.5q0 -87 -23 -178q54 21 123 15q-17 41 -17 94q0 78 45 148q-25 81 -16 171l67 -10q-6 -52 3 -99q73 62 170 62
q85 0 131 -46.5t45 -105.5q-1 -65 -49 -112.5t-127 -47.5zM404 173q-2 2 -6.5 5t-16.5 14t-23.5 24t-26 35t-26 46t-22 58t-15.5 70t-3.5 82.5t10.5 96.5q-64 -81 -120 -229.5t-56 -246.5q0 -57 22.5 -96t73.5 -39t106.5 49.5t102.5 130.5zM348 484q0 -164 91 -249
q50 97 81.5 208t31.5 171q0 116 -78 116q-53 0 -89.5 -72t-36.5 -174zM996 734q-78 0 -128 -62q50 -81 130 -81q43 0 67 23.5t24 50.5q0 26 -23.5 47.5t-69.5 21.5z" />
    <glyph glyph-name="oe" unicode="&#x153;" horiz-adv-x="699" 
d="M713 269q11 0 25 -10t18 -21q-28 -49 -60.5 -90.5t-75.5 -79.5t-96 -59.5t-110 -21.5q-109 0 -142 75q-70 -75 -154 -75q-58 0 -94.5 36t-36.5 106q0 40 11.5 91.5t36 106t57.5 100.5t80.5 75.5t99.5 29.5q89 0 118 -75q73 75 154 75q76 0 103.5 -58t-13.5 -148
q-38 -79 -101.5 -105.5t-164.5 -15.5q-1 -3 -3 -8.5t-5.5 -21t-4.5 -30t2 -32t11 -30t25.5 -21t43.5 -8.5q71 0 144.5 58.5t131.5 156.5zM124 58q41 0 86 66.5t72 147t27 130.5q0 59 -41 59t-86.5 -66.5t-73.5 -147t-28 -128.5q0 -28 12 -44.5t32 -16.5zM537 446
q-39 0 -76.5 -46t-56.5 -92l-18 -46q65 -12 100.5 14t59.5 77q44 93 -9 93z" />
    <glyph glyph-name="Racute" unicode="&#x154;" horiz-adv-x="645" 
d="M568 1031h117l-158 -137h-76zM363 549l-67 -166q94 -45 162.5 -22t107 83t38.5 132q0 83 -60.5 139t-161.5 56q-67 0 -125 -27t-94.5 -68t-56.5 -88t-20 -89q0 -23 6 -46.5t12 -35.5l6 -12l-71 -53q-39 58 -39 143q0 139 108 248.5t276 109.5q140 0 229 -76.5t89 -200.5
q0 -113 -68.5 -200t-179.5 -97q75 -53 49 -202l-31 -172q-5 -55 8 -77.5t57 -22.5v-85q-87 -8 -130.5 46.5t-29.5 146.5l26 142q19 104 8 153.5t-60 79.5q-39 10 -81 30l-134 -331h-105l240 596q22 55 65.5 92.5t95.5 37.5l19 -63q-6 -2 -16 -7.5t-33.5 -31.5t-38.5 -62z
" />
    <glyph glyph-name="racute" unicode="&#x155;" horiz-adv-x="395" 
d="M57 238q-11 0 -25 10t-18 21q37 64 89 178q-31 33 -31 64q0 33 28 64.5t61 41.5l54 -38l-38 -89q6 -6 44.5 -37t56.5 -55.5t18 -53.5q0 -22 -12 -51l-45 -111q-13 -33 -19.5 -57t-7 -37.5t3 -21.5t8 -10t10.5 -2q27 0 68.5 52t106.5 163q11 0 25 -10t18 -21
q-72 -124 -127.5 -187.5t-119.5 -63.5q-31 0 -52 13t-31.5 39.5t-4 73.5t32.5 109l37 90q9 22 9 34q0 14 -11.5 27t-40.5 37q-47 -102 -87 -172zM262 790h117l-158 -137h-76z" />
    <glyph glyph-name="Rcaron" unicode="&#x158;" horiz-adv-x="645" 
d="M494 894l-76 159h64l52 -89l122 89h89l-203 -159h-48zM363 549l-67 -166q94 -45 162.5 -22t107 83t38.5 132q0 83 -60.5 139t-161.5 56q-67 0 -125 -27t-94.5 -68t-56.5 -88t-20 -89q0 -23 6 -46.5t12 -35.5l6 -12l-71 -53q-39 58 -39 143q0 139 108 248.5t276 109.5
q140 0 229 -76.5t89 -200.5q0 -113 -68.5 -200t-179.5 -97q75 -53 49 -202l-31 -172q-5 -55 8 -77.5t57 -22.5v-85q-87 -8 -130.5 46.5t-29.5 146.5l26 142q19 104 8 153.5t-60 79.5q-39 10 -81 30l-134 -331h-105l240 596q22 55 65.5 92.5t95.5 37.5l19 -63q-6 -2 -16 -7.5
t-33.5 -31.5t-38.5 -62z" />
    <glyph glyph-name="rcaron" unicode="&#x159;" horiz-adv-x="395" 
d="M57 238q-11 0 -25 10t-18 21q37 64 89 178q-31 33 -31 64q0 33 28 64.5t61 41.5l54 -38l-38 -89q6 -6 44.5 -37t56.5 -55.5t18 -53.5q0 -22 -12 -51l-45 -111q-13 -33 -19.5 -57t-7 -37.5t3 -21.5t8 -10t10.5 -2q27 0 68.5 52t106.5 163q11 0 25 -10t18 -21
q-72 -124 -127.5 -187.5t-119.5 -63.5q-31 0 -52 13t-31.5 39.5t-4 73.5t32.5 109l37 90q9 22 9 34q0 14 -11.5 27t-40.5 37q-47 -102 -87 -172zM164 653l-76 159h64l52 -89l122 89h89l-203 -159h-48z" />
    <glyph glyph-name="Sacute" unicode="&#x15a;" horiz-adv-x="648" 
d="M729 1031h117l-158 -137h-76zM73 203q0 -58 28 -106q28 29 83 81.5t139 132.5t131 126q-18 112 -18 178q0 109 47 171t127 62q65 0 101 -38t36 -96q0 -36 -13.5 -70.5t-48.5 -76.5t-55 -63t-74 -73q24 -146 24 -207q0 -140 -83 -227t-215 -87q-110 0 -191 62
q-76 -101 -58 -209h-73q-22 129 78 261q-58 75 -58 178q0 62 22.5 115.5t60.5 87.5t85 53t98.5 17t98.5 -26l-32 -78q-95 39 -167.5 -15t-72.5 -153zM482 224q0 38 -13 123q-53 -51 -158 -152.5t-158 -152.5q55 -40 122 -40q91 0 149 60.5t58 161.5zM534 622q0 -40 8 -99
q66 64 95 103.5t29 77.5q0 26 -13 42t-36 16q-35 0 -59 -37t-24 -103z" />
    <glyph glyph-name="sacute" unicode="&#x15b;" horiz-adv-x="366" 
d="M256 729h117l-158 -137h-76zM57 238q-11 0 -25 10t-18 21q84 144 148 285l84 -35q-12 -48 -16.5 -108t-3.5 -101t4 -91.5t3 -60.5q0 -47 -11 -80q68 35 158 191q11 0 25 -10t18 -21q-33 -58 -58.5 -95t-64.5 -77t-87 -59.5t-106 -19.5q-57 0 -93.5 24.5t-44.5 43.5l55 34
q24 -27 57 -27q31 0 45.5 26t14.5 94q0 15 -2.5 87t-1.5 117q-36 -70 -80 -148z" />
    <glyph glyph-name="Scedilla" unicode="&#x15e;" horiz-adv-x="648" 
d="M208 -177l47 88q-93 7 -164 61q-76 -101 -58 -209h-73q-22 129 78 261q-58 75 -58 178q0 62 22.5 115.5t60.5 87.5t85 53t98.5 17t98.5 -26l-32 -78q-95 39 -167.5 -15t-72.5 -153q0 -58 28 -106q28 29 83 81.5t139 132.5t131 126q-18 112 -18 178q0 109 47 171t127 62
q65 0 101 -38t36 -96q0 -36 -13.5 -70.5t-48.5 -76.5t-55 -63t-74 -73q24 -146 24 -207q0 -133 -75.5 -218.5t-197.5 -94.5l-26 -51q24 0 40 -16t16 -46q0 -44 -35 -71t-79 -27.5t-84 12.5l32 49q18 -13 58 -5.5t40 38.5q0 34 -61 29zM482 224q0 38 -13 123
q-53 -51 -158 -153t-158 -153q54 -39 122 -39q91 0 149 60.5t58 161.5zM534 622q0 -40 8 -99q66 64 95 103.5t29 77.5q0 26 -13 42t-36 16q-35 0 -59 -37t-24 -103z" />
    <glyph glyph-name="scedilla" unicode="&#x15f;" horiz-adv-x="366" 
d="M380 269q11 0 25 -10t18 -21q-33 -59 -58.5 -95.5t-65 -77t-88.5 -60t-108 -18.5l-21 -41q24 0 40 -16t16 -46q0 -44 -35 -71t-79 -27.5t-84 12.5q6 8 16 24.5t16 24.5q18 -13 58 -5.5t40 38.5q0 34 -61 29l46 85q-32 8 -56 27.5t-30 33.5q23 14 55 34q24 -27 57 -27
q31 0 45.5 26t14.5 94q0 15 -2.5 87t-1.5 117q-36 -70 -80 -148q-11 0 -25 10t-18 21q84 144 148 285l84 -35q-12 -48 -16.5 -108t-3.5 -101t4 -91.5t3 -60.5q0 -47 -11 -80q68 35 158 191z" />
    <glyph glyph-name="Scaron" unicode="&#x160;" horiz-adv-x="648" 
d="M662 894l-76 159h64l52 -89l122 89h89l-203 -159h-48zM73 203q0 -58 28 -106q28 29 83 81.5t139 132.5t131 126q-18 112 -18 178q0 109 47 171t127 62q65 0 101 -38t36 -96q0 -36 -13.5 -70.5t-48.5 -76.5t-55 -63t-74 -73q24 -146 24 -207q0 -140 -83 -227t-215 -87
q-110 0 -191 62q-76 -101 -58 -209h-73q-22 129 78 261q-58 75 -58 178q0 62 22.5 115.5t60.5 87.5t85 53t98.5 17t98.5 -26l-32 -78q-95 39 -167.5 -15t-72.5 -153zM482 224q0 38 -13 123q-53 -51 -158 -152.5t-158 -152.5q55 -40 122 -40q91 0 149 60.5t58 161.5zM534 622
q0 -40 8 -99q66 64 95 103.5t29 77.5q0 26 -13 42t-36 16q-35 0 -59 -37t-24 -103z" />
    <glyph glyph-name="scaron" unicode="&#x161;" horiz-adv-x="366" 
d="M172 579l-76 159h64l52 -89l122 89h89l-203 -159h-48zM57 238q-11 0 -25 10t-18 21q84 144 148 285l84 -35q-12 -48 -16.5 -108t-3.5 -101t4 -91.5t3 -60.5q0 -47 -11 -80q68 35 158 191q11 0 25 -10t18 -21q-33 -58 -58.5 -95t-64.5 -77t-87 -59.5t-106 -19.5
q-57 0 -93.5 24.5t-44.5 43.5l55 34q24 -27 57 -27q31 0 45.5 26t14.5 94q0 15 -2.5 87t-1.5 117q-36 -70 -80 -148z" />
    <glyph glyph-name="Tcommaaccent" unicode="&#x162;" horiz-adv-x="616" 
d="M132 -120l46 86q-82 11 -130 68.5t-48 133.5q0 87 63 147t153 56v-88q-61 5 -95 -32.5t-34 -85.5q0 -45 32.5 -80t91.5 -35q72 0 122.5 56.5t89.5 161.5l172 427q-29 6 -91.5 19.5t-95 20.5t-74.5 13t-69 6q-67 0 -96.5 -29t-29.5 -68q0 -36 23 -58t57 -22q20 0 39.5 8.5
t28.5 16.5l9 8l44 -66q-5 -5 -14 -13.5t-40 -22t-66 -13.5q-70 0 -118 46.5t-48 117.5q0 73 54 127.5t161 54.5q75 0 278 -46t280 -46q38 0 68 7.5t41 14.5l10 7l54 -30q0 -3 -2 -9t-12 -21t-26 -26t-50 -20.5t-78 -9.5q-51 0 -140 14l-195 -480q-85 -219 -268 -232l-24 -47
q24 0 40 -16t16 -46q0 -44 -35 -71t-79 -27.5t-84 12.5l32 49q18 -13 58 -5.5t40 38.5q0 34 -61 29z" />
    <glyph glyph-name="tcommaaccent" unicode="&#x163;" horiz-adv-x="281" 
d="M-38 -91l46 85q-90 37 -14 228l120 297h-92l22 54h92l58 144h105l-58 -144h88l-22 -54h-88l-136 -337q-52 -128 0 -128q42 0 99.5 60t112.5 155q11 0 25 -10t18 -21q-143 -250 -282 -251l-21 -41q24 0 40 -16t16 -46q0 -44 -35 -71t-79 -27.5t-84 12.5l32 49
q18 -13 58 -5.5t40 38.5q0 34 -61 29z" />
    <glyph glyph-name="Tcaron" unicode="&#x164;" horiz-adv-x="616" 
d="M664 830l-76 159h64l52 -89l122 89h89l-203 -159h-48zM1000 748q0 -3 -2 -9t-12 -21t-26 -26t-50 -20.5t-78 -9.5q-51 0 -140 14l-195 -480q-26 -68 -62.5 -116t-76 -72t-75 -34.5t-71.5 -10.5q-96 0 -154 60.5t-58 144.5q0 87 63 147t153 56v-88q-61 5 -95 -32.5
t-34 -85.5q0 -45 32.5 -80t91.5 -35q72 0 122.5 56.5t89.5 161.5l172 427q-29 6 -91.5 19.5t-95 20.5t-74.5 13t-69 6q-67 0 -96.5 -29t-29.5 -68q0 -36 23 -58t57 -22q20 0 39.5 8.5t28.5 16.5l9 8l44 -66q-5 -5 -14 -13.5t-40 -22t-66 -13.5q-70 0 -118 46.5t-48 117.5
q0 73 54 127.5t161 54.5q75 0 278 -46t280 -46q38 0 68 7.5t41 14.5l10 7z" />
    <glyph glyph-name="tcaron" unicode="&#x165;" horiz-adv-x="281" 
d="M295 269q11 0 25 -10t18 -21q-143 -251 -283 -251q-156 0 -61 235l120 297h-92l22 54h92l58 144h105l-58 -144h88l-22 -54h-88l-136 -337q-52 -128 0 -128q42 0 99.5 60t112.5 155zM424 724q20 0 38 -14.5t18 -45.5q0 -27 -15 -54t-36.5 -46.5t-43 -35.5t-36.5 -24
l-15 -8l-17 34q82 54 88 86q-37 13 -37 52q0 23 16.5 39.5t39.5 16.5z" />
    <glyph glyph-name="Uring" unicode="&#x16e;" horiz-adv-x="818" 
d="M697 1026q46 0 79 -32.5t33 -78.5q0 -47 -32.5 -79.5t-79.5 -32.5q-46 0 -78.5 33t-32.5 79t32.5 78.5t78.5 32.5zM697 863q22 0 37 15t15 37q0 21 -15 36t-37 15q-21 0 -36 -15t-15 -36q0 -22 15 -37t36 -15zM832 269q11 0 25 -10t18 -21q-143 -251 -268 -251
q-44 0 -70.5 29t-20.5 91q-118 -145 -216 -145q-31 0 -55.5 14t-40.5 44.5t-10 87.5t38 133l145 359q-18 -7 -56 -21.5t-64.5 -25t-61 -28.5t-56 -35.5t-36.5 -43.5t-15 -55q0 -38 22 -62.5t58 -24.5v-87q-76 0 -122.5 50t-45.5 120q0 48 22 89t54 68t81 53t90 41t95.5 35
t83.5 33q58 84 135 84l19 -63q-6 -2 -15.5 -7t-33 -31.5t-39.5 -64.5l-174 -431q-56 -139 9 -139q57 0 134 85.5t122 171.5l167 415h105l-221 -552q-43 -113 2 -113q38 0 89.5 57.5t106.5 150.5z" />
    <glyph glyph-name="uring" unicode="&#x16f;" horiz-adv-x="502" 
d="M316 789q46 0 79 -32.5t33 -78.5t-33 -79t-79 -33t-78.5 33t-32.5 79t32.5 78.5t78.5 32.5zM316 626q22 0 37 15t15 37q0 21 -15 36t-37 15q-21 0 -36 -15t-15 -36q0 -22 15 -37t36 -15zM516 269q11 0 25 -10t18 -21q-143 -251 -269 -251q-41 0 -66.5 21.5t-26.5 65.5
q-78 -87 -147 -87q-30 0 -51 11.5t-33 37t-5.5 73t33.5 113.5l120 297h105l-136 -337q-19 -48 -24 -75.5t0 -35t17 -7.5q40 0 86 58.5t84 132.5l106 264h105l-136 -337q-19 -48 -24 -78t1.5 -40t20.5 -10q35 0 88.5 60.5t108.5 154.5z" />
    <glyph glyph-name="Uhungarumlaut" unicode="&#x170;" horiz-adv-x="818" 
d="M840 968h103l-134 -137h-67zM687 968h103l-134 -137h-67zM832 269q11 0 25 -10t18 -21q-143 -251 -268 -251q-44 0 -70.5 29t-20.5 91q-118 -145 -216 -145q-31 0 -55.5 14t-40.5 44.5t-10 87.5t38 133l145 359q-18 -7 -56 -21.5t-64.5 -25t-61 -28.5t-56 -35.5
t-36.5 -43.5t-15 -55q0 -38 22 -62.5t58 -24.5v-87q-76 0 -122.5 50t-45.5 120q0 48 22 89t54 68t81 53t90 41t95.5 35t83.5 33q58 84 135 84l19 -63q-6 -2 -15.5 -7t-33 -31.5t-39.5 -64.5l-174 -431q-56 -139 9 -139q57 0 134 85.5t122 171.5l167 415h105l-221 -552
q-43 -113 2 -113q38 0 89.5 57.5t106.5 150.5z" />
    <glyph glyph-name="uhungarumlaut" unicode="&#x171;" horiz-adv-x="502" 
d="M428 717h103l-134 -137h-67zM275 717h103l-134 -137h-67zM516 269q11 0 25 -10t18 -21q-143 -251 -269 -251q-41 0 -66.5 21.5t-26.5 65.5q-78 -87 -147 -87q-30 0 -51 11.5t-33 37t-5.5 73t33.5 113.5l120 297h105l-136 -337q-19 -48 -24 -75.5t0 -35t17 -7.5
q40 0 86 58.5t84 132.5l106 264h105l-136 -337q-19 -48 -24 -78t1.5 -40t20.5 -10q35 0 88.5 60.5t108.5 154.5z" />
    <glyph glyph-name="Ydieresis" unicode="&#x178;" horiz-adv-x="789" 
d="M614 830q-25 0 -43 18t-18 44t17.5 43.5t43.5 17.5t44 -18t18 -43q0 -26 -18 -44t-44 -18zM785 830q-25 0 -43 18t-18 44t18 43.5t43 17.5q26 0 44 -18t18 -43q0 -26 -18.5 -44t-43.5 -18zM803 269q11 0 25 -10t18 -21q-108 -189 -300 -281q-46 -117 -70 -156
q-59 -97 -147 -97q-51 0 -79 29t-25 76q5 73 113 123q6 3 48.5 21t66.5 30l40 99q-108 -120 -199 -120q-29 0 -52 14t-38 44.5t-9 87.5t38 133l145 359q-16 -7 -56 -21.5t-66 -24.5t-61 -28.5t-56 -36.5t-36.5 -44t-15.5 -55q0 -38 22 -62t58 -24v-87q-76 0 -122.5 50
t-45.5 120q0 49 22 90t54.5 68t82 53t90.5 41t95.5 35t83.5 33q57 83 135 83l19 -63q-6 -2 -16 -7t-33.5 -31.5t-39.5 -64.5l-173 -431q-14 -35 -20 -61t-5.5 -40.5t5.5 -23.5t11.5 -11.5t13.5 -2.5q58 0 139.5 88t120.5 169l167 415h105l-276 -686q137 77 223 229z
M315 -222q54 0 107 128q-66 -29 -87 -41q-49 -28 -49 -62q0 -12 9 -18.5t20 -6.5z" />
    <glyph glyph-name="Zacute" unicode="&#x179;" horiz-adv-x="628" 
d="M698 989h117l-158 -137h-76zM317 230l339 448q-54 2 -162.5 27.5t-148.5 25.5q-60 0 -90 -31t-30 -71q0 -35 23 -57.5t57 -22.5q20 0 39.5 8.5t28.5 16.5l9 8l44 -66q-5 -5 -14 -13.5t-40 -22t-66 -13.5q-72 0 -119 46t-47 116q0 73 54.5 128.5t150.5 55.5q39 0 96 -11.5
t101.5 -22.5t100 -17t90.5 5q53 45 109 45l19 -63q-24 -10 -41 -24t-47 -53l-377 -497q-47 -62 -81 -103q16 -15 62 -59.5t76.5 -72t58.5 -49.5q74 -58 125 -58q61 0 135 71l63 -72q-101 -94 -195 -94q-80 0 -183 79q-31 24 -66 56t-77 72t-63 59q-83 -74 -171 -75
q-68 -1 -111.5 40t-43.5 95q0 57 41.5 101t108.5 44q47 0 84.5 -18.5t83.5 -54.5q28 34 74 94zM79 12q50 4 102 56q-62 59 -109 59q-26 0 -43.5 -17.5t-17.5 -40.5q0 -24 19 -41.5t49 -15.5z" />
    <glyph glyph-name="zacute" unicode="&#x17a;" horiz-adv-x="495" 
d="M386 717h117l-158 -137h-76zM57 238q-11 0 -25 10t-18 21q20 34 46 85.5t40 76t35.5 52t46 38.5t56.5 11q24 0 56 -7t56 -13.5t56.5 -6t63.5 13.5l45 -50l-340 -338q31 0 71.5 -23t69.5 -23q86 0 193 184q11 0 25 -10t18 -21q-68 -118 -134 -184.5t-144 -66.5
q-34 0 -66 14.5t-50.5 26.5t-48.5 7.5t-66 -35.5l-45 50l353 351q-16 0 -57.5 14t-67.5 14q-42 0 -68.5 -29.5t-77.5 -120.5q-15 -27 -23 -41z" />
    <glyph glyph-name="Zdotaccent" unicode="&#x17b;" horiz-adv-x="628" 
d="M655 853q-25 0 -43 18t-18 44q0 25 18 43t43 18q26 0 44 -18t18 -43t-18.5 -43.5t-43.5 -18.5zM317 230l339 448q-54 2 -162.5 27.5t-148.5 25.5q-60 0 -90 -31t-30 -71q0 -35 23 -57.5t57 -22.5q20 0 39.5 8.5t28.5 16.5l9 8l44 -66q-5 -5 -14 -13.5t-40 -22t-66 -13.5
q-72 0 -119 46t-47 116q0 73 54.5 128.5t150.5 55.5q39 0 96 -11.5t101.5 -22.5t100 -17t90.5 5q53 45 109 45l19 -63q-24 -10 -41 -24t-47 -53l-377 -497q-47 -62 -81 -103q16 -15 62 -59.5t76.5 -72t58.5 -49.5q74 -58 125 -58q61 0 135 71l63 -72q-101 -94 -195 -94
q-80 0 -183 79q-31 24 -66 56t-77 72t-63 59q-83 -74 -171 -75q-68 -1 -111.5 40t-43.5 95q0 57 41.5 101t108.5 44q47 0 84.5 -18.5t83.5 -54.5q28 34 74 94zM79 12q50 4 102 56q-62 59 -109 59q-26 0 -43.5 -17.5t-17.5 -40.5q0 -24 19 -41.5t49 -15.5z" />
    <glyph glyph-name="zdotaccent" unicode="&#x17c;" horiz-adv-x="495" 
d="M357 590q-25 0 -43 18t-18 44t18 43.5t43 17.5q26 0 44 -18t18 -43q0 -26 -18.5 -44t-43.5 -18zM57 238q-11 0 -25 10t-18 21q20 34 46 85.5t40 76t35.5 52t46 38.5t56.5 11q24 0 56 -7t56 -13.5t56.5 -6t63.5 13.5l45 -50l-340 -338q31 0 71.5 -23t69.5 -23
q86 0 193 184q11 0 25 -10t18 -21q-68 -118 -134 -184.5t-144 -66.5q-34 0 -66 14.5t-50.5 26.5t-48.5 7.5t-66 -35.5l-45 50l353 351q-16 0 -57.5 14t-67.5 14q-42 0 -68.5 -29.5t-77.5 -120.5q-15 -27 -23 -41z" />
    <glyph glyph-name="Zcaron" unicode="&#x17d;" horiz-adv-x="628" 
d="M581 853l-76 159h64l52 -89l122 89h89l-203 -159h-48zM317 230l339 448q-54 2 -162.5 27.5t-148.5 25.5q-60 0 -90 -31t-30 -71q0 -35 23 -57.5t57 -22.5q20 0 39.5 8.5t28.5 16.5l9 8l44 -66q-5 -5 -14 -13.5t-40 -22t-66 -13.5q-72 0 -119 46t-47 116q0 73 54.5 128.5
t150.5 55.5q39 0 96 -11.5t101.5 -22.5t100 -17t90.5 5q53 45 109 45l19 -63q-24 -10 -41 -24t-47 -53l-377 -497q-47 -62 -81 -103q16 -15 62 -59.5t76.5 -72t58.5 -49.5q74 -58 125 -58q61 0 135 71l63 -72q-101 -94 -195 -94q-80 0 -183 79q-31 24 -66 56t-77 72t-63 59
q-83 -74 -171 -75q-68 -1 -111.5 40t-43.5 95q0 57 41.5 101t108.5 44q47 0 84.5 -18.5t83.5 -54.5q28 34 74 94zM79 12q50 4 102 56q-62 59 -109 59q-26 0 -43.5 -17.5t-17.5 -40.5q0 -24 19 -41.5t49 -15.5z" />
    <glyph glyph-name="zcaron" unicode="&#x17e;" horiz-adv-x="495" 
d="M328 589l-76 159h64l52 -89l122 89h89l-203 -159h-48zM57 238q-11 0 -25 10t-18 21q20 34 46 85.5t40 76t35.5 52t46 38.5t56.5 11q24 0 56 -7t56 -13.5t56.5 -6t63.5 13.5l45 -50l-340 -338q31 0 71.5 -23t69.5 -23q86 0 193 184q11 0 25 -10t18 -21
q-68 -118 -134 -184.5t-144 -66.5q-34 0 -66 14.5t-50.5 26.5t-48.5 7.5t-66 -35.5l-45 50l353 351q-16 0 -57.5 14t-67.5 14q-42 0 -68.5 -29.5t-77.5 -120.5q-15 -27 -23 -41z" />
    <glyph glyph-name="florin" unicode="&#x192;" horiz-adv-x="534" 
d="M375 608q44 83 101.5 112t150.5 10q-14 -43 -26 -75q-27 2 -48.5 0.5t-43.5 -19.5t-42 -56l-42 -80h95l-32 -80h-104l-167 -322q-69 -130 -153 -186.5t-194 -35.5l44 79q34 -7 64.5 2.5t56 36t41.5 49t36 57.5q26 45 67.5 125t70.5 137l28 58h-92l32 80h101z" />
    <glyph glyph-name="circumflex" unicode="&#x2c6;" horiz-adv-x="370" 
d="M275 728l77 -159h-65l-53 90l-121 -90h-89l203 159h48z" />
    <glyph glyph-name="caron" unicode="&#x2c7;" horiz-adv-x="370" 
d="M163 569l-76 159h64l52 -89l122 89h89l-203 -159h-48z" />
    <glyph glyph-name="breve" unicode="&#x2d8;" horiz-adv-x="370" 
d="M204 583q-46 0 -69 18.5t-22.5 44t5 44.5t9.5 27h51l-2 -6l-4.5 -13.5t-2 -16.5t4 -16.5t14.5 -12.5t28 -5q14 0 27 3.5t23 9.5t18 13t13.5 14.5t9.5 13.5t7 11l2 5h51q-1 -6 -5.5 -18.5t-17 -33.5t-29.5 -38.5t-46.5 -30.5t-64.5 -13z" />
    <glyph glyph-name="dotaccent" unicode="&#x2d9;" horiz-adv-x="370" 
d="M218 590q-25 0 -43 18t-18 44t17.5 43.5t43.5 17.5t44 -18t18 -43q0 -26 -18 -44t-44 -18z" />
    <glyph glyph-name="ring" unicode="&#x2da;" horiz-adv-x="370" 
d="M237 807q46 0 79 -32.5t33 -78.5t-32.5 -79t-79.5 -33q-46 0 -78.5 33t-32.5 79t32.5 78.5t78.5 32.5zM237 644q22 0 37 15t15 37q0 21 -15 36t-37 15q-21 0 -36 -15t-15 -36q0 -22 15 -37t36 -15z" />
    <glyph glyph-name="ogonek" unicode="&#x2db;" horiz-adv-x="370" 
d="M172 -199q-19 -7 -41.5 -10.5t-47.5 -1.5t-41.5 20t-16.5 50q0 44 48 84.5t139 86.5l16 -29q-53 -33 -88.5 -66.5t-35.5 -56.5q0 -40 90 -12q4 1 5 1z" />
    <glyph glyph-name="tilde" unicode="&#x2dc;" horiz-adv-x="370" 
d="M100 601l-30 36q27 34 49 50.5t51 16.5q30 0 66 -19t53 -19q33 0 54 35l30 -37q-51 -65 -100 -65q-30 0 -65.5 19t-53.5 19q-29 0 -54 -36z" />
    <glyph glyph-name="hungarumlaut" unicode="&#x2dd;" horiz-adv-x="370" 
d="M308 717h103l-134 -137h-67zM155 717h103l-134 -137h-67z" />
    <glyph glyph-name="endash" unicode="&#x2013;" horiz-adv-x="677" 
d="M159 327h450l-32 -80h-451z" />
    <glyph glyph-name="emdash" unicode="&#x2014;" horiz-adv-x="857" 
d="M160 327h629l-32 -80h-630z" />
    <glyph glyph-name="quoteleft" unicode="&#x2018;" horiz-adv-x="236" 
d="M153 435q-30 0 -51.5 22.5t-21.5 58.5q0 33 19.5 67t47.5 59t55.5 46t47.5 32l19 10l22 -44q-104 -70 -114 -111q21 -8 34.5 -26.5t13.5 -41.5q0 -30 -21 -51t-51 -21z" />
    <glyph glyph-name="quoteright" unicode="&#x2019;" horiz-adv-x="217" 
d="M202 730q26 0 49 -19.5t23 -59.5q0 -34 -19.5 -69t-47 -60.5t-55 -45.5t-46.5 -30l-20 -11l-22 44q104 70 114 111q-21 8 -34.5 26t-13.5 42q0 29 21 50.5t51 21.5z" />
    <glyph glyph-name="quotesinglbase" unicode="&#x201a;" horiz-adv-x="270" 
d="M122 131q26 0 49 -19.5t23 -59.5q0 -34 -19.5 -69t-47 -60.5t-55 -45.5t-46.5 -31l-20 -10l-22 44q104 70 114 111q-21 8 -34.5 26t-13.5 42q0 29 21 50.5t51 21.5z" />
    <glyph glyph-name="quotedblleft" unicode="&#x201c;" horiz-adv-x="423" 
d="M153 435q-29 0 -50 21t-22 51q0 38 19.5 75t47 62.5t55 45.5t47.5 30l19 10l22 -44q-104 -70 -114 -111q21 -8 34.5 -26.5t13.5 -41.5q0 -30 -21 -51t-51 -21zM359 435q-29 0 -50 21t-22 51q0 38 19.5 75t47 62.5t55 45.5t47.5 30l19 10l22 -44q-104 -70 -114 -111
q21 -8 34.5 -26.5t13.5 -41.5q0 -30 -21 -51t-51 -21z" />
    <glyph glyph-name="quotedblright" unicode="&#x201d;" horiz-adv-x="423" 
d="M408 730q29 0 50 -21t22 -51q0 -38 -19.5 -75t-47 -62.5t-55 -45.5t-46.5 -30l-20 -10l-22 44q104 70 114 111q-21 8 -34.5 26.5t-13.5 41.5q0 30 21 51t51 21zM202 730q29 0 50 -21t22 -51q0 -38 -19.5 -75t-47 -62.5t-55 -45.5t-46.5 -30l-20 -10l-22 44
q104 70 114 111q-21 8 -34.5 26.5t-13.5 41.5q0 30 21 51t51 21z" />
    <glyph glyph-name="quotedblbase" unicode="&#x201e;" horiz-adv-x="476" 
d="M328 131q29 0 50 -21t22 -51q0 -38 -19.5 -75t-47 -62.5t-55 -45.5t-46.5 -30l-20 -10l-22 44q104 70 114 111q-21 8 -34.5 26.5t-13.5 41.5q0 30 21 51t51 21zM122 131q29 0 50 -21t22 -51q0 -38 -19.5 -75t-47 -62.5t-55 -45.5t-46.5 -30l-20 -10l-22 44
q104 70 114 111q-21 8 -34.5 26.5t-13.5 41.5q0 30 21 51t51 21z" />
    <glyph glyph-name="dagger" unicode="&#x2020;" horiz-adv-x="568" 
d="M454 503q21 0 36 -15t15 -37t-15 -37t-37 -15q-9 0 -18 3l-107 33l-32 -173q-48 -69 -209 -415h-37q117 337 127 415l108 173l-94 -23q-8 -2 -15 -2q-21 0 -36 15t-15 37t15 37t37 15q8 0 17 -3l106 -33l49 205q2 20 17 33.5t35 13.5q21 0 36.5 -15.5t15.5 -36.5
q0 -17 -10 -30l-97 -170l93 23q8 2 15 2z" />
    <glyph glyph-name="daggerdbl" unicode="&#x2021;" horiz-adv-x="618" 
d="M503 504q22 0 37 -15.5t15 -36.5q0 -22 -15 -37t-37 -15q-9 0 -18 3l-109 33l-30 -173l-69 -111q-19 -28 -41 -62l96 23q8 2 15 2q21 0 36 -15t15 -37t-15 -37t-37 -15q-10 0 -17 3l-106 33l-49 -205q-2 -20 -17 -33.5t-35 -13.5q-21 0 -36.5 15t-15.5 37q0 15 10 30
l97 170l-93 -23q-10 -2 -15 -2q-21 0 -36 15t-15 37t15 37t37 15q9 0 18 -3l109 -33l30 173l110 173l-95 -23q-5 -2 -15 -2q-22 0 -37 15t-15 37q0 21 15 36.5t37 15.5q9 0 17 -3l106 -33l49 205q2 20 17 33t35 13q22 0 37 -15t15 -37q0 -15 -9 -29l-98 -170l93 23
q10 2 14 2z" />
    <glyph glyph-name="bullet" unicode="&#x2022;" horiz-adv-x="420" 
d="M224 196q-38 0 -64 26t-26 64t26.5 64.5t63.5 26.5q38 0 64.5 -26.5t26.5 -64.5t-26.5 -64t-64.5 -26z" />
    <glyph glyph-name="ellipsis" unicode="&#x2026;" horiz-adv-x="698" 
d="M550 -13q-30 0 -51 21t-21 51t21 51t51 21t51 -21t21 -51t-21 -51t-51 -21zM336 -13q-30 0 -51 21t-21 51t21 51t51 21t51 -21t21 -51t-21 -51t-51 -21zM122 -13q-30 0 -51 21t-21 51t21 51t51 21t51 -21t21 -51t-21 -51t-51 -21z" />
    <glyph glyph-name="perthousand" unicode="&#x2030;" horiz-adv-x="980" 
d="M80 0l473 573h79l-474 -573h-78zM53 432q0 58 41.5 99.5t99.5 41.5t99.5 -41.5t41.5 -99.5t-41.5 -99.5t-99.5 -41.5t-99.5 41.5t-41.5 99.5zM126 431q0 -29 19 -48t48 -19t48.5 19.5t19.5 47.5q0 29 -19.5 48.5t-48.5 19.5q-28 0 -47.5 -19.5t-19.5 -48.5zM377 141
q0 59 41.5 100t99.5 41t99.5 -41t41.5 -100t-41.5 -100t-99.5 -41t-99.5 41t-41.5 100zM450 140q0 -28 19 -47.5t48 -19.5t48.5 19.5t19.5 47.5t-19.5 48t-48.5 20q-28 0 -47.5 -19.5t-19.5 -48.5zM694 141q0 59 41 100t100 41t100 -41t41 -100t-41 -100t-100 -41t-100 41
t-41 100zM767 140q0 -28 19.5 -47.5t47.5 -19.5q29 0 48.5 19.5t19.5 47.5t-20 48t-48 20t-47.5 -19.5t-19.5 -48.5z" />
    <glyph glyph-name="guilsinglleft" unicode="&#x2039;" horiz-adv-x="511" 
d="M267 76l-155 170l23 58l292 168l-44 -110l-168 -104l83 -107z" />
    <glyph glyph-name="guilsinglright" unicode="&#x203a;" horiz-adv-x="511" 
d="M248 472l156 -170l-23 -58l-292 -168l44 110l168 104l-83 107z" />
    <glyph glyph-name="fraction" unicode="&#x2044;" horiz-adv-x="383" 
d="M482 717h68l-594 -717h-67z" />
    <glyph glyph-name="zerosuperior" unicode="&#x2070;" horiz-adv-x="319" 
d="M228 745q39 0 60.5 -25.5t21.5 -72.5q0 -39 -15.5 -94t-41.5 -109t-67.5 -92t-87.5 -38q-39 0 -60.5 25.5t-21.5 73.5q0 40 15.5 95t41.5 108.5t67.5 91t87.5 37.5zM105 370q37 0 88.5 114t51.5 171q0 35 -22 35q-38 0 -90 -114t-52 -172q0 -34 24 -34z" />
    <glyph glyph-name="foursuperior" unicode="&#x2074;" horiz-adv-x="335" 
d="M142 424h-144l28 66l217 248h98l-99 -247q12 2 21 5.5t12 5.5l3 3l28 -33q-3 -5 -9 -13t-30 -21t-53 -14l-41 -102h-72zM87 490h83l69 175z" />
    <glyph glyph-name="fivesuperior" unicode="&#x2075;" horiz-adv-x="326" 
d="M253 653l-75 9l-25 -62q23 20 55 20q37 0 55.5 -26t18.5 -66t-17 -86.5t-59.5 -87t-100.5 -40.5q-50 0 -73 28.5t-21.5 62.5t14.5 69h76q-19 -42 -16.5 -72.5t27.5 -30.5q35 0 66.5 60.5t31.5 104.5q0 34 -25 34q-15 0 -32.5 -15.5t-31.5 -43.5l-64 20l84 207
q109 -19 126 -19q31 0 53 19l29 -35q-36 -50 -96 -50z" />
    <glyph glyph-name="sixsuperior" unicode="&#x2076;" horiz-adv-x="322" 
d="M111 314q-8 0 -17 1.5t-23 7.5t-24.5 15.5t-18 29.5t-7.5 46q0 41 15.5 96.5t42.5 108.5t69 89.5t88 36.5q50 0 71.5 -37t3.5 -99h-74q6 15 10 32t0.5 32.5t-18.5 15.5q-39 0 -94 -123q32 27 68 27t54.5 -23.5t16.5 -62.5q-2 -66 -50 -129.5t-113 -63.5zM178 543
q-17 0 -37.5 -16t-35.5 -39q-17 -51 -17 -80q0 -37 25 -37q31 0 61 50.5t30 87.5q0 34 -26 34z" />
    <glyph glyph-name="sevensuperior" unicode="&#x2077;" horiz-adv-x="290" 
d="M310 738l26 -31q-151 -207 -229 -385h-86q53 128 221 342q-10 -2 -20 -2q-16 0 -70 8l-29 -73h-72l58 141q131 -19 148 -19q31 0 53 19z" />
    <glyph glyph-name="eightsuperior" unicode="&#x2078;" horiz-adv-x="323" 
d="M234 745q48 0 71.5 -22t23.5 -58q0 -37 -24 -74t-65 -51l2 -2q2 -1 4.5 -3.5l6 -6t6.5 -9t5.5 -12t4 -15.5t1.5 -19q0 -58 -41.5 -108.5t-117.5 -50.5q-46 0 -77 21t-31 70q0 48 30 91.5t81 56.5q-1 0 -5.5 5t-10 18.5t-5.5 31.5q0 51 36 94t105 43zM115 371q33 0 57 34
t24 68q0 39 -37 39q-34 0 -58 -34.5t-24 -67.5q0 -39 38 -39zM196 577q24 0 41.5 27.5t17.5 53.5q0 31 -27 31q-24 0 -42 -27.5t-18 -53.5q0 -31 28 -31z" />
    <glyph glyph-name="ninesuperior" unicode="&#x2079;" horiz-adv-x="311" 
d="M125 467q-36 0 -54.5 23t-16.5 62q2 66 50 129.5t113 63.5q11 0 23 -3t29 -11.5t27.5 -30.5t10.5 -54q0 -57 -25.5 -132.5t-77 -137.5t-112.5 -62q-50 0 -71.5 39t-3.5 97h74q-4 -9 -7 -21t-4.5 -25.5t3.5 -23t17 -9.5q38 0 93 122q-33 -26 -68 -26zM215 689
q-31 0 -61 -50.5t-30 -87.5q0 -34 26 -34q17 0 37.5 16t35.5 38q17 58 17 81q0 37 -25 37z" />
    <glyph glyph-name="Euro" unicode="&#x20ac;" horiz-adv-x="570" 
d="M392 241h-167q-15 -54 -15 -109q0 -69 67 -69q64 0 154 80l51 -47q-116 -109 -226 -109q-148 0 -148 152q0 45 12 102h-71l26 63h61q9 30 17 51h-58l26 63h57q58 134 138 223t168 89q50 0 78 -26t31.5 -66t-5 -82.5t-27.5 -81.5h-107q43 68 46 125q3 45 -31 45
q-42 0 -90 -64.5t-90 -161.5h174l-25 -63h-175l-18 -51h172z" />
    <glyph glyph-name="trademark" unicode="&#x2122;" horiz-adv-x="621" 
d="M568 639l-77 -193h-65q81 201 81 206q0 8 -11 8q-19 0 -41 -19l-78 -195h-65l81 203q-21 -8 -64 -1l-47 -117q-39 -98 -120 -98q-38 0 -61.5 22t-23.5 54q0 31 22 53t65 20l-1 -51q-32 2 -32 -21q0 -24 29 -24q41 0 66 69l43 107q-68 18 -91 18q-32 0 -32 -19
q0 -7 4.5 -12t14.5 -6t26 8l17 -40q-46 -22 -80.5 -6.5t-34.5 54.5q0 29 21.5 50t63.5 21q31 0 119.5 -24t113.5 -12l10 24l48 -32q32 22 66 22t38 -31q31 31 77 31q21 0 30 -12t9 -25q0 -19 -19 -66l-52 -130q-11 -30 13 -41l-22 -54q-80 30 -52 105q65 160 65 169
q0 6 -11 6q-21 0 -43 -21z" />
    <glyph glyph-name="minus" unicode="&#x2212;" horiz-adv-x="585" 
d="M478 242h-443l37 89h443z" />
    <glyph glyph-name="lessequal" unicode="&#x2264;" horiz-adv-x="635" 
d="M408 0h-471l36 90h471zM640 573l-45 -110l-387 -135l279 -135l-34 -83l-394 190l33 83z" />
    <glyph glyph-name="greaterequal" unicode="&#x2265;" horiz-adv-x="635" 
d="M418 0h-471l36 90h471zM572 383l-33 -83l-548 -190l45 110l388 135l-279 135l33 83z" />
    <glyph glyph-name="fi" unicode="&#xfb01;" horiz-adv-x="650" 
d="M664 269q11 0 25 -10t18 -21q-144 -251 -269 -251q-110 0 -90 128q-96 -86 -227 -78q3 -28 -2 -58q-17 -101 -66 -189q-57 -104 -141 -104q-37 0 -59 17.5t-26.5 57t22.5 102.5l296 733q44 111 91 156t105 45q61 0 83 -48t-4 -131q-19 -59 -55.5 -144.5t-72.5 -150.5
q-43 -78 -84 -109t-127 -34l-23 -56q36 -32 87 -32q78 0 139 41.5t112 128.5l104 257h105l-136 -337q-21 -51 -25 -81t2.5 -38.5t19.5 -8.5q36 0 89.5 60.5t108.5 154.5zM342 712q-45 0 -101 -138l-137 -337q37 5 62 28t53 74q93 174 132 306q19 67 -9 67zM601 580
q-25 0 -43 18t-18 44t18 43.5t43 17.5q26 0 44 -18t18 -43q0 -26 -18.5 -44t-43.5 -18zM58 -16q14 68 -24 80q-17 -41 -52.5 -129t-52.5 -129q-18 -47 1 -50q26 -4 54.5 41t47 96t26.5 91z" />
    <glyph glyph-name="fl" unicode="&#xfb02;" horiz-adv-x="650" 
d="M664 269q11 0 25 -10t18 -21q-144 -251 -269 -251q-110 0 -90 128q-96 -86 -227 -78q3 -28 -2 -58q-18 -105 -66 -189q-59 -104 -141 -104q-37 0 -59 17.5t-26.5 57t22.5 102.5l296 733q44 111 91 156t105 45q61 0 83 -48t-4 -131q-19 -59 -55.5 -144.5t-72.5 -150.5
q-43 -78 -84 -109t-127 -34l-23 -56q36 -32 87 -32q78 0 139 41.5t112 128.5l184 455h105l-216 -535q-21 -51 -25 -81t2.5 -38.5t19.5 -8.5q36 0 89.5 60.5t108.5 154.5zM342 712q-45 0 -101 -138l-137 -337q37 5 62 28t53 74q93 174 132 306q19 67 -9 67zM58 -16
q14 68 -24 80l-105 -258q-18 -47 1 -50q26 -4 54.5 41t47 96t26.5 91z" />
    <glyph glyph-name="sterling.onum" horiz-adv-x="583" 
d="M465 591q57 0 88.5 -29t30 -71.5t-24.5 -89.5h-94q49 103 -11 103q-45 0 -73.5 -51t-42.5 -126h115l-23 -57h-101q-4 -23 -11 -44.5t-13 -35.5t-18 -33.5t-17 -27t-19.5 -26.5t-17.5 -23q45 -12 64 -12q36 0 59 29.5t43 81.5h90q-9 -26 -14 -40.5t-22.5 -47t-35.5 -51.5
t-49 -35t-68 -16q-27 0 -67 12t-56 14q-34 -24 -77 -17.5t-52 40.5q-10 39 26 67t89 7q53 57 67 158h-70l21 57h57q11 69 36.5 125.5t75 97.5t115.5 41z" />
    <glyph glyph-name="q.calt" horiz-adv-x="517" 
d="M531 269q11 0 25 -10t18 -21q-111 -195 -224 -228q19 -38 6 -100q-18 -88 -72 -156t-114 -68q-52 0 -74 47t8 130l65 159q-47 -35 -97 -35q-57 0 -79.5 46.5t-8.5 129.5q9 51 30 111.5t53 119.5t77.5 98.5t93.5 39.5q35 0 65 -20.5t39 -60.5l28 68h104l-185 -456
q58 -14 121 46t121 160zM110 74q26 0 57 24.5t58 63.5l84 208q2 32 -13.5 52.5t-39.5 20.5q-28 0 -58 -32.5t-53 -80t-39 -94.5t-23 -82q-16 -80 27 -80zM296 -83q20 69 -31 86l-80 -197q-6 -16 -9 -26.5t-2.5 -16.5t3 -8.5t8.5 -2.5q31 0 63.5 57t47.5 108z" />
    <glyph glyph-name="four.onum" horiz-adv-x="509" 
d="M209 32h-261l38 92l409 449h133l-180 -446q23 3 40 9t22 10l6 4l42 -45l-5 -7.5t-15.5 -16.5t-28 -21.5t-42 -18t-57.5 -9.5l-71 -176h-101zM71 124h175l139 345z" />
    <glyph glyph-name="four.inf" horiz-adv-x="335" 
d="M142 102h-144l28 66l217 248h98l-99 -247q12 2 21 5.5t12 5.5l3 3l28 -33q-3 -5 -9 -13t-30 -21t-53 -14l-41 -102h-72zM87 168h83l69 175z" />
    <glyph glyph-name="percent.onum" horiz-adv-x="790" 
d="M98 0l473 573h79l-474 -573h-78zM71 432q0 58 41.5 99.5t99.5 41.5t99.5 -41.5t41.5 -99.5t-41.5 -99.5t-99.5 -41.5t-99.5 41.5t-41.5 99.5zM144 431q0 -29 19 -48t48 -19t48.5 19.5t19.5 47.5q0 29 -19.5 48.5t-48.5 19.5q-28 0 -47.5 -19.5t-19.5 -48.5zM395 141
q0 59 41.5 100t99.5 41t99.5 -41t41.5 -100t-41.5 -100t-99.5 -41t-99.5 41t-41.5 100zM468 140q0 -28 19 -47.5t48 -19.5t48.5 19.5t19.5 47.5t-19.5 48t-48.5 20q-28 0 -47.5 -19.5t-19.5 -48.5z" />
    <glyph glyph-name="j.salt" horiz-adv-x="254" 
d="M216 580q-26 0 -44 18t-18 44q0 25 18 43t44 18t43.5 -17.5t17.5 -43.5t-18 -44t-43 -18zM268 269q11 0 25 -10t18 -21q-30 -52 -65.5 -95t-64 -69.5t-69.5 -52.5t-62 -36.5t-60 -29.5q-20 -49 -29 -71q-36 -84 -78.5 -130.5t-110.5 -46.5q-49 0 -77 27t-25 69
q5 73 110 124q12 6 57.5 26t58.5 28l218 538h105l-199 -490q76 39 137 95.5t111 144.5zM-271 -195q0 -12 8.5 -19.5t21.5 -6.5q25 1 53 30.5t53 94.5q-64 -26 -86 -39q-50 -31 -50 -60z" />
    <glyph glyph-name="p.calt" horiz-adv-x="477" 
d="M491 269q11 0 25 -10t18 -21q-62 -111 -152 -181t-196 -70q-48 0 -83 15.5t-46 31.5l-11 15l39 35q14 -21 33 -21q32 0 75.5 65.5t74.5 146.5t31 128q0 42 -31 42q-25 0 -55 -23t-58 -61l-226 -559h-105l290 717h104l-17 -42q6 8 16 17.5t37 23.5t54 14q44 0 67.5 -33
t23.5 -90q0 -91 -54 -207t-100 -157q139 41 246 224z" />
    <glyph glyph-name="otilde.salt" horiz-adv-x="489" 
d="M216 601l-30 36q27 34 49 50.5t51 16.5q30 0 66 -19t53 -19q33 0 54 35l30 -37q-51 -65 -100 -65q-30 0 -65.5 19t-53.5 19q-29 0 -54 -36zM503 269q11 0 25 -10t18 -21q-83 -131 -237 -126q-82 -125 -193 -125q-58 0 -94.5 36t-36.5 106q0 89 46 189t101 133
q70 86 145 86q56 0 89.5 -38t33.5 -108q0 -105 -60 -225q58 3 100 34.5t63 68.5zM265 461q-19 0 -39 -15.5t-34 -40.5q-29 -51 -29 -96q0 -87 79 -126q28 57 46.5 120t18.5 100q0 58 -42 58zM122 58q43 0 92 75q-83 40 -102 129q-34 -89 -34 -143q0 -61 44 -61z" />
    <glyph glyph-name="m.calt" horiz-adv-x="740" 
d="M754 269q11 0 25 -10t18 -21q-144 -251 -269 -251q-32 0 -53.5 12t-33 38t-4.5 73t33 112l40 99q35 87 35 102q0 22 -28 22q-22 0 -55.5 -19t-63.5 -54l-151 -372h-105q124 307 130 321q35 87 35 102q0 22 -28 22q-22 0 -55 -19t-64 -54l-150 -372h-105l209 519h105
l-21 -52q71 65 139 65q35 0 57 -21.5t21 -60.5q79 82 157 82q35 0 58 -20t23 -58q0 -41 -33 -122l-61 -150q-14 -34 -20 -58.5t-6.5 -37.5t4 -20.5t9 -9.5t10.5 -2q36 0 89.5 60.5t108.5 154.5z" />
    <glyph glyph-name="oacute.salt" horiz-adv-x="489" 
d="M357 717h117l-158 -137h-76zM503 269q11 0 25 -10t18 -21q-83 -131 -237 -126q-82 -125 -193 -125q-58 0 -94.5 36t-36.5 106q0 89 46 189t101 133q70 86 145 86q56 0 89.5 -38t33.5 -108q0 -105 -60 -225q58 3 100 34.5t63 68.5zM265 461q-19 0 -39 -15.5t-34 -40.5
q-29 -51 -29 -96q0 -87 79 -126q28 57 46.5 120t18.5 100q0 58 -42 58zM122 58q43 0 92 75q-83 40 -102 129q-34 -89 -34 -143q0 -61 44 -61z" />
    <glyph glyph-name="n.calt" horiz-adv-x="502" 
d="M516 269q11 0 25 -10t18 -21q-144 -251 -269 -251q-44 0 -68.5 21.5t-24 75.5t34.5 138l40 99q35 87 35 102q0 22 -28 22q-22 0 -55 -19t-64 -54l-150 -372h-105l209 519h105l-21 -52q71 65 139 65q34 0 56 -20t22 -57q0 -40 -33 -123l-61 -150q-14 -34 -20 -58.5
t-6.5 -37.5t4 -20.5t9 -9.5t10.5 -2q36 0 89.5 60.5t108.5 154.5z" />
    <glyph glyph-name="r.salt" horiz-adv-x="419" 
d="M-74 0q-10 0 -24 15t-13 25q38 37 102.5 144t135.5 263q-31 33 -31 64q0 33 28 64.5t61 41.5l54 -38l-38 -88q7 -7 44.5 -37.5t56 -55.5t18.5 -53q0 -23 -12 -52l-45 -111q-14 -33 -20.5 -58t-6.5 -38t4.5 -20.5t9 -9.5t9.5 -2q27 0 68.5 53t105.5 162q11 0 25 -10
t18 -21q-72 -124 -127.5 -187.5t-119.5 -63.5q-31 0 -52 13t-31.5 39.5t-4 73.5t32.5 109l37 90q8 20 8 32q0 15 -10 27.5t-41 38.5q-67 -147 -134.5 -261t-107.5 -149z" />
    <glyph glyph-name="five.onum" horiz-adv-x="490" 
d="M384 448q-14 0 -47 4t-59 8l-26 5l-49 -122q35 34 90 34q57 0 92 -42.5t35 -110.5q0 -50 -19.5 -113t-55.5 -124t-96.5 -102.5t-132.5 -41.5q-59 0 -94.5 28t-44 70.5t-5 86t18.5 81.5h108q-37 -78 -29.5 -132t53.5 -54q48 0 95.5 63t74 137.5t26.5 121.5q0 62 -51 62
q-31 0 -64.5 -31t-59.5 -82l-88 35l139 344q171 -29 203 -29q53 0 90 29l44 -51q-53 -74 -148 -74z" />
    <glyph glyph-name="racute.salt" horiz-adv-x="419" 
d="M286 790h117l-158 -137h-76zM-74 0q-10 0 -24 15t-13 25q38 37 102.5 144t135.5 263q-31 33 -31 64q0 33 28 64.5t61 41.5l54 -38l-38 -88q7 -7 44.5 -37.5t56 -55.5t18.5 -53q0 -23 -12 -52l-45 -111q-14 -33 -20.5 -58t-6.5 -38t4.5 -20.5t9 -9.5t9.5 -2q27 0 68.5 53
t105.5 162q11 0 25 -10t18 -21q-72 -124 -127.5 -187.5t-119.5 -63.5q-31 0 -52 13t-31.5 39.5t-4 73.5t32.5 109l37 90q8 20 8 32q0 15 -10 27.5t-41 38.5q-67 -147 -134.5 -261t-107.5 -149z" />
    <glyph glyph-name="five.inf" horiz-adv-x="326" 
d="M253 331l-75 9l-25 -62q23 20 55 20q37 0 55.5 -26t18.5 -66t-17 -86.5t-59.5 -87t-100.5 -40.5q-50 0 -73 28.5t-21.5 62.5t14.5 69h76q-19 -42 -16.5 -72.5t27.5 -30.5q35 0 66.5 60.5t31.5 104.5q0 34 -25 34q-15 0 -32.5 -15.5t-31.5 -43.5l-64 20l84 207
q109 -19 126 -19q31 0 53 19l29 -35q-36 -50 -96 -50z" />
    <glyph glyph-name="rcaron.salt" horiz-adv-x="419" 
d="M188 653l-76 159h64l52 -89l122 89h89l-203 -159h-48zM-74 0q-10 0 -24 15t-13 25q38 37 102.5 144t135.5 263q-31 33 -31 64q0 33 28 64.5t61 41.5l54 -38l-38 -88q7 -7 44.5 -37.5t56 -55.5t18.5 -53q0 -23 -12 -52l-45 -111q-14 -33 -20.5 -58t-6.5 -38t4.5 -20.5
t9 -9.5t9.5 -2q27 0 68.5 53t105.5 162q11 0 25 -10t18 -21q-72 -124 -127.5 -187.5t-119.5 -63.5q-38 0 -61 22.5t-26.5 75t32.5 137.5l37 90q8 20 8 32q0 15 -10 27.5t-41 38.5q-67 -147 -134.5 -261t-107.5 -149z" />
    <glyph glyph-name="nacute.calt" horiz-adv-x="502" 
d="M324 717h117l-158 -137h-76zM516 269q11 0 25 -10t18 -21q-144 -251 -269 -251q-44 0 -68.5 21.5t-24 75.5t34.5 138l40 99q35 87 35 102q0 22 -28 22q-22 0 -55 -19t-64 -54l-150 -372h-105l209 519h105l-21 -52q71 65 139 65q34 0 56 -20t22 -57q0 -40 -33 -123
l-61 -150q-14 -34 -20 -58.5t-6.5 -37.5t4 -20.5t9 -9.5t10.5 -2q36 0 89.5 60.5t108.5 154.5z" />
    <glyph glyph-name="ncaron.calt" horiz-adv-x="502" 
d="M244 569l-76 159h64l52 -89l122 89h89l-203 -159h-48zM516 269q11 0 25 -10t18 -21q-144 -251 -269 -251q-44 0 -68.5 21.5t-24 75.5t34.5 138l40 99q35 87 35 102q0 22 -28 22q-22 0 -55 -19t-64 -54l-150 -372h-105l209 519h105l-21 -52q71 65 139 65q34 0 56 -20
t22 -57q0 -40 -33 -123l-61 -150q-14 -34 -20 -58.5t-6.5 -37.5t4 -20.5t9 -9.5t10.5 -2q36 0 89.5 60.5t108.5 154.5z" />
    <glyph glyph-name="nine.inf" horiz-adv-x="311" 
d="M125 145q-36 0 -54.5 23t-16.5 62q2 66 50 129.5t113 63.5q11 0 23 -3t29 -11.5t27.5 -30.5t10.5 -54q0 -57 -25.5 -132.5t-77 -137.5t-112.5 -62q-50 0 -71.5 39t-3.5 97h74q-4 -9 -7 -21t-4.5 -25.5t3.5 -23t17 -9.5q38 0 93 122q-33 -26 -68 -26zM215 367
q-31 0 -61 -50.5t-30 -87.5q0 -34 26 -34q17 0 37.5 16t35.5 38q17 58 17 81q0 37 -25 37z" />
    <glyph glyph-name="s.salt" horiz-adv-x="399" 
d="M-83 -12q-11 1 -24.5 15t-12.5 25q25 24 71 88.5t96 152.5q84 144 148 285l84 -35q-12 -48 -16.5 -108t-3.5 -101t4 -91.5t3 -60.5q0 -47 -11 -80q68 35 158 191q11 0 25 -10t18 -21q-33 -58 -58.5 -95t-64.5 -77t-87 -59.5t-106 -19.5q-57 0 -93.5 24.5t-44.5 43.5
q23 14 55 34q24 -27 57 -27q31 0 45.5 26t14.5 94q0 15 -2.5 87t-1.5 118q-39 -78 -80 -149q-112 -195 -173 -250z" />
    <glyph glyph-name="nine.onum" horiz-adv-x="481" 
d="M173 106q-40 0 -77.5 25t-46.5 81q-8 49 8 112.5t51 122t95 99t130 40.5q12 0 24 -1.5t34 -10.5t37.5 -25t27.5 -49t12 -78q0 -74 -29.5 -172.5t-76.5 -189.5t-116.5 -154t-140.5 -63q-57 0 -98.5 38t-41.5 105q0 35 13 84h106q-21 -53 -21 -87q0 -26 11 -43t33 -17
q79 0 183 234q-61 -51 -117 -51zM321 506q-45 0 -89.5 -56t-68 -123.5t-17.5 -106.5q3 -20 16.5 -32.5t33.5 -12.5q33 0 75 32.5t68 77.5q33 104 33 156q0 65 -51 65z" />
    <glyph glyph-name="sacute.salt" horiz-adv-x="399" 
d="M289 729h117l-158 -137h-76zM-83 -12q-11 1 -24.5 15t-12.5 25q25 24 71 88.5t96 152.5q84 144 148 285l84 -35q-12 -48 -16.5 -108t-3.5 -101t4 -91.5t3 -60.5q0 -47 -11 -80q68 35 158 191q11 0 25 -10t18 -21q-33 -58 -58.5 -95t-64.5 -77t-87 -59.5t-106 -19.5
q-57 0 -93.5 24.5t-44.5 43.5q23 14 55 34q24 -27 57 -27q31 0 45.5 26t14.5 94q0 15 -2.5 87t-1.5 118q-39 -78 -80 -149q-112 -195 -173 -250z" />
    <glyph glyph-name="one.onum" horiz-adv-x="390" 
d="M438 573l-231 -573h-101l144 357q-93 -108 -201 -210l-41 46q93 88 175.5 183t118.5 146l35 51h101z" />
    <glyph glyph-name="scaron.salt" horiz-adv-x="399" 
d="M205 579l-76 159h64l52 -89l122 89h89l-203 -159h-48zM-83 -12q-11 1 -24.5 15t-12.5 25q25 24 71 88.5t96 152.5q84 144 148 285l84 -35q-12 -48 -16.5 -108t-3.5 -101t4 -91.5t3 -60.5q0 -47 -11 -80q68 35 158 191q11 0 25 -10t18 -21q-33 -58 -58.5 -95t-64.5 -77
t-87 -59.5t-106 -19.5q-57 0 -93.5 24.5t-44.5 43.5q23 14 55 34q24 -27 57 -27q31 0 45.5 26t14.5 94q0 15 -2.5 87t-1.5 118q-39 -78 -80 -149q-112 -195 -173 -250z" />
    <glyph glyph-name="one.inf" horiz-adv-x="260" 
d="M286 416l-167 -416h-72l106 269q-47 -57 -96 -106l-28 32q52 51 98.5 106.5t66.5 84.5l21 30h71z" />
    <glyph glyph-name="scedilla.salt" horiz-adv-x="399" 
d="M42 -91l46 85q-33 9 -56.5 28t-29.5 33q23 14 55 34q24 -27 57 -27q31 0 45.5 26t14.5 94q0 15 -2.5 87t-1.5 118q-39 -78 -80 -149q-112 -195 -173 -250q-11 1 -24.5 15t-12.5 25q25 24 71 88.5t96 152.5q84 144 148 285l84 -35q-12 -48 -16.5 -108t-3.5 -101t4 -91.5
t3 -60.5q0 -47 -11 -80q68 35 158 191q11 0 25 -10t18 -21q-27 -47 -46 -76.5t-49.5 -66t-60.5 -57.5t-72.5 -36t-91.5 -15l-21 -41q24 0 40 -16t16 -46q0 -44 -35 -71t-79 -27.5t-84 12.5l32 49q18 -13 58 -5.5t40 38.5q0 34 -61 29z" />
    <glyph glyph-name="eight.onum" horiz-adv-x="499" 
d="M375 730q73 0 114.5 -37t41.5 -97q0 -64 -42.5 -130.5t-115.5 -90.5q57 -38 57 -119q0 -44 -17 -89.5t-48.5 -86.5t-83.5 -67t-116 -26q-24 0 -46 3.5t-47 13.5t-43.5 25.5t-30.5 43.5t-12 64q0 82 53 160.5t144 100.5q-4 2 -11.5 10t-18 32.5t-10.5 56.5q0 85 62.5 159
t169.5 74zM167 67q48 0 86 34.5t55.5 78t17.5 81.5q0 75 -74 75q-48 0 -87 -35.5t-56.5 -79.5t-17.5 -81q0 -73 76 -73zM305 432q53 0 87.5 54t34.5 105q0 59 -56 59q-54 0 -89 -54.5t-35 -104.5q0 -30 16.5 -44.5t41.5 -14.5z" />
    <glyph glyph-name="eight.inf" horiz-adv-x="323" 
d="M234 423q48 0 71.5 -22t23.5 -58q0 -37 -24 -74t-65 -52q4 -2 9 -6.5t13 -21t8 -38.5q0 -58 -41.5 -108.5t-117.5 -50.5q-46 0 -77 21t-31 70q0 48 30 91.5t81 56.5q-1 0 -5.5 5t-10 18.5t-5.5 31.5q0 51 36 94t105 43zM115 49q33 0 57 34t24 68q0 39 -37 39
q-34 0 -58 -34.5t-24 -67.5q0 -39 38 -39zM196 255q24 0 41.5 27.5t17.5 53.5q0 31 -27 31q-24 0 -42 -27.5t-18 -53.5q0 -31 28 -31z" />
    <glyph glyph-name="seven.inf" horiz-adv-x="290" 
d="M310 416l26 -31q-151 -207 -229 -385h-86q53 128 221 342q-10 -2 -20 -2q-16 0 -70 8l-29 -73h-72l58 141q131 -19 148 -19q31 0 53 19z" />
    <glyph glyph-name="seven.onum" horiz-adv-x="453" 
d="M492 573l37 -43q-273 -374 -405 -674h-127q110 262 393 608q-18 -3 -37 -3q-27 0 -151 15l-51 -129h-101l91 226q229 -29 261 -29q53 0 90 29z" />
    <glyph glyph-name="ohungarumlaut.salt" horiz-adv-x="489" 
d="M434 717h103l-134 -137h-67zM281 717h103l-134 -137h-67zM503 269q11 0 25 -10t18 -21q-83 -131 -237 -126q-82 -125 -193 -125q-58 0 -94.5 36t-36.5 106q0 89 46 189t101 133q70 86 145 86q56 0 89.5 -38t33.5 -108q0 -105 -60 -225q58 3 100 34.5t63 68.5zM265 461
q-19 0 -39 -15.5t-34 -40.5q-29 -51 -29 -96q0 -87 79 -126q28 57 46.5 120t18.5 100q0 58 -42 58zM122 58q43 0 92 75q-83 40 -102 129q-34 -89 -34 -143q0 -61 44 -61z" />
    <glyph glyph-name="Euro.onum" horiz-adv-x="552" 
d="M362 193h-148q-9 -36 -9 -72q0 -62 58 -62q53 0 133 69l49 -45q-101 -94 -201 -94q-137 0 -137 133q0 35 7 71h-64l23 55h54q7 21 13 37h-53l23 56h51q47 107 117 178.5t150 71.5q60 0 85.5 -36.5t20.5 -82.5t-27 -88h-101q43 68 35 106q-4 20 -27 20q-37 0 -76.5 -48
t-71.5 -121h156l-22 -56h-157l-13 -37h153z" />
    <glyph glyph-name="six.inf" horiz-adv-x="322" 
d="M111 -8q-8 0 -17 1.5t-23 7.5t-24.5 15.5t-18 29.5t-7.5 46q0 41 15.5 96.5t42.5 108.5t69 89.5t88 36.5q50 0 71.5 -37t3.5 -99h-74q6 15 10 32t0.5 32.5t-18.5 15.5q-39 0 -94 -123q32 27 68 27t54.5 -23.5t16.5 -62.5q-2 -66 -50 -129.5t-113 -63.5zM178 221
q-17 0 -37.5 -16t-35.5 -39q-17 -51 -17 -80q0 -37 25 -37q31 0 61 50.5t30 87.5q0 34 -26 34z" />
    <glyph glyph-name="six.onum" horiz-adv-x="491" 
d="M157 -13q-12 0 -24 1.5t-34 10.5t-37.5 25t-27.5 49t-12 78q0 74 29 173t76.5 189.5t118 153.5t142.5 63q78 0 116.5 -64.5t7.5 -162.5h-106q8 17 13.5 40t6.5 48t-9 42t-32 17q-80 0 -185 -234q62 51 119 51q55 0 90 -38.5t35 -105.5q0 -50 -20 -108t-55.5 -109
t-91.5 -85t-120 -34zM295 397q-35 0 -77.5 -33t-67.5 -78q-32 -99 -32 -153q0 -66 50 -66q41 0 84 50.5t68.5 113t25.5 105.5q0 30 -14 45.5t-37 15.5z" />
    <glyph glyph-name="ograve.salt" horiz-adv-x="489" 
d="M167 717h117l117 -137h-76zM503 269q11 0 25 -10t18 -21q-83 -131 -237 -126q-82 -125 -193 -125q-58 0 -94.5 36t-36.5 106q0 89 46 189t101 133q70 86 145 86q56 0 89.5 -38t33.5 -108q0 -105 -60 -225q58 3 100 34.5t63 68.5zM265 461q-19 0 -39 -15.5t-34 -40.5
q-29 -51 -29 -96q0 -87 79 -126q28 57 46.5 120t18.5 100q0 58 -42 58zM122 58q43 0 92 75q-83 40 -102 129q-34 -89 -34 -143q0 -61 44 -61z" />
    <glyph glyph-name="dollar.onum" horiz-adv-x="412" 
d="M99 -46h-49l31 78q-42 10 -63.5 35.5t-22.5 56t4.5 56t15.5 42.5h92q-9 -15 -15.5 -30.5t-9 -32.5t5 -30.5t25.5 -19.5l66 163q-47 56 -60 84q-13 29 -13 59q0 62 52 109.5t139 43.5l26 65h51l-29 -72q38 -12 58.5 -38.5t21.5 -56t-4.5 -54.5t-15.5 -41h-93
q13 19 20.5 40.5t4 42.5t-22.5 29l-65 -161q25 -27 37.5 -42.5t25.5 -44t13 -56.5q0 -60 -48 -108t-148 -45zM237 185q0 21 -24 51l-53 -132q34 4 55.5 28t21.5 53zM195 409q0 -19 20 -44l51 123q-34 -5 -52.5 -29t-18.5 -50z" />
    <glyph glyph-name="ntilde.calt" horiz-adv-x="502" 
d="M166 601l-30 36q27 34 49 50.5t51 16.5q30 0 66 -19t53 -19q33 0 54 35l30 -37q-51 -65 -100 -65q-30 0 -65.5 19t-53.5 19q-29 0 -54 -36zM516 269q11 0 25 -10t18 -21q-144 -251 -269 -251q-44 0 -68.5 21.5t-24 75.5t34.5 138l40 99q35 87 35 102q0 22 -28 22
q-22 0 -55 -19t-64 -54l-150 -372h-105l209 519h105l-21 -52q71 65 139 65q34 0 56 -20t22 -57q0 -40 -33 -123l-61 -150q-14 -34 -20 -58.5t-6.5 -37.5t4 -20.5t9 -9.5t10.5 -2q36 0 89.5 60.5t108.5 154.5z" />
    <glyph glyph-name="g.calt" horiz-adv-x="509" 
d="M523 269q11 0 25 -10t18 -21q-30 -52 -65.5 -95t-64 -69.5t-69 -52t-62 -37t-60.5 -29.5q-13 -34 -29 -71q-36 -84 -78.5 -130.5t-110.5 -46.5q-49 0 -77 27t-25 69q5 76 110 124q16 8 60 27t56 27l30 75l-5 -7.5t-13.5 -16.5t-22.5 -21t-30.5 -16.5t-38.5 -7.5
q-44 0 -68.5 32t-24.5 81q0 34 11 87t34 113t53 111.5t73 86t88 34.5q36 0 66 -20t38 -61l28 68h105l-199 -490q76 39 137 95.5t111 144.5zM111 74q26 0 55 23t44 46l16 23l83 205v8t-2.5 17t-7.5 21.5t-15 17.5t-24 8q-43 0 -87.5 -66.5t-69.5 -142.5t-25 -119
q0 -41 33 -41zM-16 -195q0 -26 30 -26q25 1 53 30.5t53 94.5q-64 -26 -86 -39q-50 -31 -50 -60z" />
    <glyph glyph-name="t.salt" horiz-adv-x="281" 
d="M295 269q11 0 25 -10t18 -21q-143 -251 -283 -251q-156 0 -61 235l200 495h105l-58 -144h108l-22 -54h-108l-136 -337q-52 -128 0 -128q42 0 99.5 60t112.5 155z" />
    <glyph glyph-name="odieresis.salt" horiz-adv-x="489" 
d="M243 590q-25 0 -43 18t-18 44t18 43.5t43 17.5q26 0 44 -18t18 -43q0 -26 -18.5 -44t-43.5 -18zM414 590q-25 0 -43 18t-18 44t17.5 43.5t43.5 17.5t44 -18t18 -43q0 -26 -18 -44t-44 -18zM503 269q11 0 25 -10t18 -21q-83 -131 -237 -126q-82 -125 -193 -125
q-58 0 -94.5 36t-36.5 106q0 89 46 189t101 133q70 86 145 86q56 0 89.5 -38t33.5 -108q0 -105 -60 -225q58 3 100 34.5t63 68.5zM265 461q-19 0 -39 -15.5t-34 -40.5q-29 -51 -29 -96q0 -87 79 -126q28 57 46.5 120t18.5 100q0 58 -42 58zM122 58q43 0 92 75
q-83 40 -102 129q-34 -89 -34 -143q0 -61 44 -61z" />
    <glyph glyph-name="atilde.calt" 
d="M238 601l-30 36q27 34 49 50.5t51 16.5q30 0 66 -19t53 -19q33 0 54 35l30 -37q-51 -65 -100 -65q-30 0 -65.5 19t-53.5 19q-29 0 -54 -36zM533 269q11 0 25 -10t18 -21q-144 -251 -270 -251q-25 0 -44 8t-27.5 20t-13.5 24t-5 20l-1 8q-2 -3 -6.5 -8.5t-19.5 -19.5
t-30.5 -24.5t-38.5 -19t-46 -8.5q-46 0 -71 31.5t-25 80.5q0 44 18 113.5t49.5 142.5t84 125t112.5 52q24 0 42.5 -8.5t28.5 -20t17 -23.5t9 -20l2 -9l28 68h105l-136 -337q-19 -48 -24 -78t1.5 -40t20.5 -10q35 0 88.5 60.5t108.5 154.5zM111 74q26 0 55 23t44 46l16 23
l83 205v8t-2.5 17t-7.5 21.5t-15 17.5t-24 8q-43 0 -87.5 -66.5t-69.5 -142.5t-25 -119q0 -41 33 -41z" />
    <glyph glyph-name="three.inf" horiz-adv-x="320" 
d="M320 341q0 -37 -24.5 -69.5t-72.5 -48.5q39 -21 39 -72q0 -58 -41.5 -108.5t-115.5 -50.5q-43 0 -67.5 18.5t-29 46t0 53.5t14.5 45h76q-11 -18 -18 -41.5t-0.5 -43.5t31.5 -20q34 0 57.5 34t23.5 67q0 48 -75 40l25 62q28 0 48.5 7.5t31 17t16.5 22t7.5 20t1.5 12.5
q0 34 -30 34q-25 0 -41.5 -21.5t-22.5 -52.5h-71q7 52 42.5 91.5t101.5 39.5q30 0 50.5 -9t28.5 -24t11 -26.5t3 -22.5z" />
    <glyph glyph-name="three.onum" horiz-adv-x="471" 
d="M489 450q0 -67 -45 -125t-131 -85q74 -35 74 -127q0 -45 -16.5 -91t-48.5 -86.5t-85.5 -66.5t-119.5 -26q-58 0 -95.5 22t-50.5 53.5t-13.5 69.5t7 69t18.5 52h111q-15 -24 -24.5 -54t-11.5 -60.5t15 -51t53 -20.5q68 0 115 65t47 129q0 25 -10 41.5t-21.5 23.5t-34.5 9
t-33 1.5t-32 -2.5l39 98q49 0 86.5 13.5t56.5 32t31 42.5t15 40.5t3 30.5q0 60 -58 60q-49 0 -84 -40t-44 -92h-100q5 39 21 75t43 67.5t70.5 50t98.5 18.5q41 0 71.5 -11.5t45.5 -26.5t24 -36t11 -34.5t2 -27.5z" />
    <glyph glyph-name="aring.calt" 
d="M368 789q46 0 79 -32.5t33 -78.5t-33 -79t-79 -33t-78.5 33t-32.5 79t32.5 78.5t78.5 32.5zM368 626q22 0 37 15t15 37q0 21 -15 36t-37 15q-21 0 -36 -15t-15 -36q0 -22 15 -37t36 -15zM533 269q11 0 25 -10t18 -21q-144 -251 -270 -251q-25 0 -44 8t-27.5 20t-13.5 24
t-5 20l-1 8q-2 -3 -6.5 -8.5t-19.5 -19.5t-30.5 -24.5t-38.5 -19t-46 -8.5q-46 0 -71 31.5t-25 80.5q0 44 18 113.5t49.5 142.5t84 125t112.5 52q24 0 42.5 -8.5t28.5 -20t17 -23.5t9 -20l2 -9l28 68h105l-136 -337q-19 -48 -24 -78t1.5 -40t20.5 -10q35 0 88.5 60.5
t108.5 154.5zM111 74q26 0 55 23t44 46l16 23l83 205v8t-2.5 17t-7.5 21.5t-15 17.5t-24 8q-43 0 -87.5 -66.5t-69.5 -142.5t-25 -119q0 -41 33 -41z" />
    <glyph glyph-name="aogonek.calt" 
d="M302 -199q-19 -7 -41.5 -10.5t-47.5 -1.5t-41.5 20t-16.5 50q0 64 117 133q-25 7 -39.5 26t-16.5 34l-1 15q-2 -3 -6.5 -8.5t-19.5 -19.5t-30.5 -24.5t-38.5 -19t-46 -8.5q-46 0 -71 31.5t-25 80.5q0 44 18 113.5t49.5 142.5t84 125t112.5 52q24 0 42.5 -8.5t28.5 -20
t17 -23.5t9 -20l2 -9l28 68h105l-136 -337q-19 -48 -24 -78t1.5 -40t20.5 -10q35 0 88.5 60.5t108.5 154.5q11 0 25 -10t18 -21q-125 -216 -232 -245q-110 -73 -110 -115q0 -40 90 -12q4 1 5 1zM111 74q26 0 55 23t44 46l16 23l83 205v8t-2.5 17t-7.5 21.5t-15 17.5t-24 8
q-43 0 -87.5 -66.5t-69.5 -142.5t-25 -119q0 -41 33 -41z" />
    <glyph glyph-name="numbersign.onum" horiz-adv-x="632" 
d="M620 359h-111l-58 -145h110l-29 -73h-111l-57 -141h-87l57 141h-153l-57 -141h-87l57 141h-111l29 73h111l58 145h-110l29 73h111l57 141h88l-57 -141h152l57 141h88l-57 -141h110zM363 214l58 145h-152l-58 -145h152z" />
    <glyph glyph-name="ocircumflex.salt" horiz-adv-x="489" 
d="M374 728l77 -159h-63l-53 90l-121 -90h-91l203 159h48zM503 269q11 0 25 -10t18 -21q-83 -131 -237 -126q-82 -125 -193 -125q-58 0 -94.5 36t-36.5 106q0 89 46 189t101 133q70 86 145 86q56 0 89.5 -38t33.5 -108q0 -105 -60 -225q58 3 100 34.5t63 68.5zM265 461
q-19 0 -39 -15.5t-34 -40.5q-29 -51 -29 -96q0 -87 79 -126q28 57 46.5 120t18.5 100q0 58 -42 58zM122 58q43 0 92 75q-83 40 -102 129q-34 -89 -34 -143q0 -61 44 -61z" />
    <glyph glyph-name="agrave.calt" 
d="M199 717h117l117 -137h-76zM533 269q11 0 25 -10t18 -21q-144 -251 -270 -251q-25 0 -44 8t-27.5 20t-13.5 24t-5 20l-1 8q-2 -3 -6.5 -8.5t-19.5 -19.5t-30.5 -24.5t-38.5 -19t-46 -8.5q-46 0 -71 31.5t-25 80.5q0 44 18 113.5t49.5 142.5t84 125t112.5 52
q24 0 42.5 -8.5t28.5 -20t17 -23.5t9 -20l2 -9l28 68h105l-136 -337q-19 -48 -24 -78t1.5 -40t20.5 -10q35 0 88.5 60.5t108.5 154.5zM111 74q26 0 55 23t44 46l16 23l83 205v8t-2.5 17t-7.5 21.5t-15 17.5t-24 8q-43 0 -87.5 -66.5t-69.5 -142.5t-25 -119q0 -41 33 -41z
" />
    <glyph glyph-name="two.inf" horiz-adv-x="314" 
d="M318 336q0 -96 -154 -220l-59 -47h131l-29 -69h-235l31 75q67 43 127 94q113 97 113 160q0 37 -29 37q-28 0 -47.5 -29.5t-20.5 -67.5h-71q1 56 37 105t108 49q49 0 73.5 -24t24.5 -63z" />
    <glyph glyph-name="two.onum" horiz-adv-x="475" 
d="M479 452q0 -157 -261 -306q-26 -14 -88 -48h251l-40 -98h-381l44 109q95 52 177 107q197 132 197 230q0 26 -14.5 43.5t-45.5 17.5q-54 0 -91.5 -51t-37.5 -117h-101q0 42 14 83.5t41 79t74 61t107 23.5q77 0 116 -37t39 -97z" />
    <glyph glyph-name="ae.calt" horiz-adv-x="688" 
d="M702 269q11 0 25 -10t18 -21q-28 -49 -60.5 -90.5t-75.5 -79.5t-96 -59.5t-110 -21.5q-134 0 -153 114q-86 -114 -176 -114q-46 0 -71 31.5t-25 80.5q0 44 18 113.5t49.5 142.5t84 125t112.5 52q24 0 42.5 -8.5t28.5 -20t17 -23.5t9 -20l2 -9l28 68h98q34 13 66 13
q76 0 103.5 -58t-13.5 -148q-38 -79 -101.5 -105.5t-164.5 -15.5q-1 -3 -3 -8.5t-5.5 -21t-4.5 -30t2 -32t11 -30t25.5 -21t43.5 -8.5q71 0 144.5 58.5t131.5 156.5zM111 74q26 0 55 23t44 46l16 23l83 205v8t-2.5 17t-7.5 21.5t-15 17.5t-24 8q-43 0 -87.5 -66.5
t-69.5 -142.5t-25 -119q0 -41 33 -41zM526 446q-39 0 -76.5 -46t-55.5 -92l-19 -46q65 -12 100.5 14t59.5 77q44 93 -9 93z" />
    <glyph glyph-name="adieresis.calt" 
d="M267 590q-25 0 -43 18t-18 44t18 43.5t43 17.5q26 0 44 -18t18 -43q0 -26 -18.5 -44t-43.5 -18zM438 590q-25 0 -43 18t-18 44t17.5 43.5t43.5 17.5t44 -18t18 -43q0 -26 -18 -44t-44 -18zM533 269q11 0 25 -10t18 -21q-144 -251 -270 -251q-25 0 -44 8t-27.5 20
t-13.5 24t-5 20l-1 8q-2 -3 -6.5 -8.5t-19.5 -19.5t-30.5 -24.5t-38.5 -19t-46 -8.5q-46 0 -71 31.5t-25 80.5q0 44 18 113.5t49.5 142.5t84 125t112.5 52q24 0 42.5 -8.5t28.5 -20t17 -23.5t9 -20l2 -9l28 68h105l-136 -337q-19 -48 -24 -78t1.5 -40t20.5 -10
q35 0 88.5 60.5t108.5 154.5zM111 74q26 0 55 23t44 46l16 23l83 205v8t-2.5 17t-7.5 21.5t-15 17.5t-24 8q-43 0 -87.5 -66.5t-69.5 -142.5t-25 -119q0 -41 33 -41z" />
    <glyph glyph-name="acircumflex.calt" 
d="M408 728l77 -159h-65l-53 90l-121 -90h-89l203 159h48zM533 269q11 0 25 -10t18 -21q-144 -251 -270 -251q-25 0 -44 8t-27.5 20t-13.5 24t-5 20l-1 8q-2 -3 -6.5 -8.5t-19.5 -19.5t-30.5 -24.5t-38.5 -19t-46 -8.5q-46 0 -71 31.5t-25 80.5q0 44 18 113.5t49.5 142.5
t84 125t112.5 52q24 0 42.5 -8.5t28.5 -20t17 -23.5t9 -20l2 -9l28 68h105l-136 -337q-19 -48 -24 -78t1.5 -40t20.5 -10q35 0 88.5 60.5t108.5 154.5zM111 74q26 0 55 23t44 46l16 23l83 205v8t-2.5 17t-7.5 21.5t-15 17.5t-24 8q-43 0 -87.5 -66.5t-69.5 -142.5t-25 -119
q0 -41 33 -41z" />
    <glyph glyph-name="abreve.calt" 
d="M324 583q-46 0 -69 18.5t-22.5 44t5 44.5t9.5 27h51l-2 -6l-4.5 -13.5t-2 -16.5t4 -16.5t14.5 -12.5t28 -5q14 0 27 3.5t23 9.5t18 13t13.5 14.5t9.5 13.5t7 11l2 5h51q-1 -6 -5.5 -18.5t-17 -33.5t-29.5 -38.5t-46.5 -30.5t-64.5 -13zM533 269q11 0 25 -10t18 -21
q-144 -251 -270 -251q-25 0 -44 8t-27.5 20t-13.5 24t-5 20l-1 8q-2 -3 -6.5 -8.5t-19.5 -19.5t-30.5 -24.5t-38.5 -19t-46 -8.5q-46 0 -71 31.5t-25 80.5q0 44 18 113.5t49.5 142.5t84 125t112.5 52q24 0 42.5 -8.5t28.5 -20t17 -23.5t9 -20l2 -9l28 68h105l-136 -337
q-19 -48 -24 -78t1.5 -40t20.5 -10q35 0 88.5 60.5t108.5 154.5zM111 74q26 0 55 23t44 46l16 23l83 205v8t-2.5 17t-7.5 21.5t-15 17.5t-24 8q-43 0 -87.5 -66.5t-69.5 -142.5t-25 -119q0 -41 33 -41z" />
    <glyph glyph-name="aacute.calt" 
d="M354 717h117l-158 -137h-76zM533 269q11 0 25 -10t18 -21q-144 -251 -270 -251q-25 0 -44 8t-27.5 20t-13.5 24t-5 20l-1 8q-2 -3 -6.5 -8.5t-19.5 -19.5t-30.5 -24.5t-38.5 -19t-46 -8.5q-46 0 -71 31.5t-25 80.5q0 44 18 113.5t49.5 142.5t84 125t112.5 52
q24 0 42.5 -8.5t28.5 -20t17 -23.5t9 -20l2 -9l28 68h105l-136 -337q-19 -48 -24 -78t1.5 -40t20.5 -10q35 0 88.5 60.5t108.5 154.5zM111 74q26 0 55 23t44 46l16 23l83 205v8t-2.5 17t-7.5 21.5t-15 17.5t-24 8q-43 0 -87.5 -66.5t-69.5 -142.5t-25 -119q0 -41 33 -41z
" />
    <glyph glyph-name="a.calt" 
d="M533 269q11 0 25 -10t18 -21q-144 -251 -270 -251q-25 0 -44 8t-27.5 20t-13.5 24t-5 20l-1 8q-2 -3 -6.5 -8.5t-19.5 -19.5t-30.5 -24.5t-38.5 -19t-46 -8.5q-46 0 -71 31.5t-25 80.5q0 44 18 113.5t49.5 142.5t84 125t112.5 52q24 0 42.5 -8.5t28.5 -20t17 -23.5t9 -20
l2 -9l28 68h105l-136 -337q-19 -48 -24 -78t1.5 -40t20.5 -10q35 0 88.5 60.5t108.5 154.5zM111 74q26 0 55 23t44 46l16 23l83 205v8t-2.5 17t-7.5 21.5t-15 17.5t-24 8q-43 0 -87.5 -66.5t-69.5 -142.5t-25 -119q0 -41 33 -41z" />
    <glyph glyph-name="v.salt" horiz-adv-x="480" 
d="M494 269q11 0 25 -10t18 -21q-84 -146 -175 -146q-62 0 -97 47q-89 -84 -210 -139h-102l114 519h102l-94 -430q89 53 158 122q-12 45 -12 110q0 115 36.5 185t104.5 70q38 0 67 -24t29 -78q0 -60 -39.5 -137.5t-110.5 -154.5q20 -29 56 -31q60 -3 130 118zM279 322
q0 -30 3 -56q49 62 72.5 117t23.5 89q0 40 -25 40q-28 0 -51 -52t-23 -138z" />
    <glyph glyph-name="yen.onum" horiz-adv-x="484" 
d="M525 573l-150 -202h82l-26 -62h-102l-41 -56h120l-25 -63h-141l-77 -190h-90l77 190h-133l26 63h125l3 56h-105l25 62h85l16 202h88l-25 -237l163 237h105z" />
    <glyph glyph-name="z.salt" horiz-adv-x="495" 
d="M87 292q-13 -1 -27.5 6.5t-19.5 18.5q7 12 22 41.5t21.5 41.5t20 35t21.5 33t21.5 25.5t25 22t26.5 11.5t31 5q31 0 65.5 -7t58 -13.5t55 -6t62.5 13.5l45 -50l-340 -338q31 0 71.5 -23t69.5 -23q86 0 193 184q11 0 25 -10t18 -21q-68 -118 -134 -184.5t-144 -66.5
q-34 0 -66 14.5t-50.5 26.5t-48.5 7.5t-66 -35.5l-45 50l353 351q-16 0 -56.5 14t-73.5 14q-38 0 -63.5 -29.5t-70.5 -107.5z" />
    <glyph glyph-name="zero.inf" horiz-adv-x="319" 
d="M228 423q39 0 60.5 -25.5t21.5 -72.5q0 -39 -15.5 -94t-41.5 -109t-67.5 -92t-87.5 -38q-39 0 -60.5 25.5t-21.5 73.5q0 40 15.5 95t41.5 108.5t67.5 91t87.5 37.5zM105 48q37 0 88.5 114t51.5 171q0 35 -22 35q-38 0 -90 -114t-52 -172q0 -34 24 -34z" />
    <glyph glyph-name="zero.onum" horiz-adv-x="458" 
d="M315 588q62 0 100.5 -38.5t38.5 -122.5q0 -49 -12.5 -106.5t-39.5 -116.5t-63 -107.5t-88 -79t-110 -30.5q-11 0 -22.5 1.5t-33.5 10t-38 24.5t-28.5 48.5t-12.5 77.5q0 62 21.5 136t59 142.5t98 114.5t130.5 46zM150 67q47 0 97.5 68.5t80.5 155t30 147.5q0 70 -47 70
t-97.5 -68.5t-81 -155t-30.5 -147.5q0 -70 48 -70z" />
    <glyph glyph-name="o.salt" horiz-adv-x="489" 
d="M503 269q11 0 25 -10t18 -21q-83 -131 -237 -126q-82 -125 -193 -125q-58 0 -94.5 36t-36.5 106q0 89 46 189t101 133q70 86 145 86q56 0 89.5 -38t33.5 -108q0 -105 -60 -225q58 3 100 34.5t63 68.5zM265 461q-19 0 -39 -15.5t-34 -40.5q-29 -51 -29 -96q0 -87 79 -126
q28 57 46.5 120t18.5 100q0 58 -42 58zM122 58q43 0 92 75q-83 40 -102 129q-34 -89 -34 -143q0 -61 44 -61z" />
    </font>
</defs>
</svg>
